<?xml version="1.0" standalone="no"?>
<!DOCTYPE svg PUBLIC "-//W3C//DTD SVG 1.1//EN" "http://www.w3.org/Graphics/SVG/1.1/DTD/svg11.dtd" >
<svg xmlns="http://www.w3.org/2000/svg" xmlns:xlink="http://www.w3.org/1999/xlink" version="1.1">
<metadata>
Created by FontForge 20170731 at Mon Oct 20 18:13:28 1930
 By Aleksey,,,
(c) 1996 SoftMaker Software GmbH
</metadata>
<defs>
<font id="Plakette-Serial-Regular" horiz-adv-x="241" >
  <font-face 
    font-family="Plakette-Serial"
    font-weight="400"
    font-stretch="normal"
    units-per-em="1000"
    panose-1="0 0 0 0 0 0 0 0 0 0"
    ascent="800"
    descent="-200"
    x-height="576"
    cap-height="721"
    bbox="-90 -233 966 913"
    underline-thickness="50"
    underline-position="-175"
    unicode-range="U+0020-F002"
  />
<missing-glyph horiz-adv-x="500" 
d="M31 0v876h438v-876h-438zM438 31v814h-376v-814h376z" />
    <glyph glyph-name=".notdef" horiz-adv-x="500" 
d="M31 0v876h438v-876h-438zM438 31v814h-376v-814h376z" />
    <glyph glyph-name=".null" horiz-adv-x="0" 
 />
    <glyph glyph-name="nonmarkingreturn" horiz-adv-x="290" 
 />
    <glyph glyph-name="space" unicode=" " horiz-adv-x="290" 
 />
    <glyph glyph-name="exclam" unicode="!" horiz-adv-x="163" 
d="M36 0v108h92v-108h-92zM38 721h87l-5 -546h-77z" />
    <glyph glyph-name="quotedbl" unicode="&#x22;" horiz-adv-x="302" 
d="M22 535l45 186h88l-46 -186h-87zM147 535l45 186h88l-45 -186h-88z" />
    <glyph glyph-name="numbersign" unicode="#" horiz-adv-x="632" 
d="M43 220l11 54h116l36 172h-115l11 54h116l44 209h54l-44 -209h100l45 209h54l-45 -209h116l-12 -54h-115l-37 -172h116l-12 -54h-115l-44 -209h-54l44 209h-101l-44 -209h-54l44 209h-115zM224 274h100l37 172h-101z" />
    <glyph glyph-name="dollar" unicode="$" horiz-adv-x="281" 
d="M120 0h-21q-30 0 -53.5 26.5t-23.5 59.5v209h100v-199q0 -19 17 -19q8 0 14 5t6 14v161q0 18 -3 25t-18 25l-75 94l-25 31q-16 23 -16 65v142q0 35 23.5 58.5t59.5 23.5h17v96h37v-96h20q33 0 56.5 -25.5t23.5 -59.5v-171h-100v161q0 20 -16 20q-8 0 -14.5 -6t-6.5 -14
v-108q0 -32 7 -42q2 -6 17 -23l77 -91q9 -10 14.5 -18.5t9.5 -15.5t8 -26.5t4 -34.5v-178q0 -11 -3 -22t-10 -21q-11 -19 -30.5 -32.5t-34.5 -13.5h-23v-102h-38v102z" />
    <glyph glyph-name="percent" unicode="%" horiz-adv-x="463" 
d="M146 0l118 721h50l-114 -721h-54zM172 348q0 -66 -78 -66q-34 0 -53 17t-19 49v314q0 66 76 66q74 0 74 -64v-316zM441 56q0 -66 -79 -66q-34 0 -53 17t-19 49v314q0 66 76 66q75 0 75 -64v-316zM97 336q14 0 14 12v314q0 14 -13 14q-15 0 -15 -15v-313q0 -12 14 -12z
M365 44q14 0 14 12v314q0 14 -13 14q-5 0 -10 -5t-5 -10v-313q0 -12 14 -12z" />
    <glyph glyph-name="ampersand" unicode="&#x26;" horiz-adv-x="334" 
d="M80 391q-2 6 -5 15.5t-4 11.5l-13 39q-6 21 -6 45v84q0 94 118 94q59 0 85.5 -21.5t26.5 -70.5v-83q0 -35 -5 -49.5t-26 -38.5l-43 -51l19 -43l31 61l54 2v-108l-46 -86l45 -80v-112h-63l-22 46q-11 -32 -28 -40.5t-69 -8.5q-65 0 -86 19t-21 77v172q0 23 8 52
q10 30 50 74zM122 82l11 -4l49 114l-47 100l-6 13l-7 -19v-204zM150 468q0 -23 16 -23q18 0 18 25v119q0 9 -5 16t-13 7q-16 0 -16 -23v-121z" />
    <glyph glyph-name="quotesingle" unicode="'" horiz-adv-x="172" 
d="M22 541l42 180h86l-40 -180h-88z" />
    <glyph glyph-name="parenleft" unicode="(" horiz-adv-x="165" 
d="M164 0h-26q-43 0 -72.5 29.5t-29.5 72.5v512q0 51 27 79t76 28h26v-78q-24 -2 -30.5 -9.5t-6.5 -31.5v-476q0 -30 4 -34q5 -10 32 -10v-82z" />
    <glyph glyph-name="parenright" unicode=")" horiz-adv-x="165" 
d="M0 0v82q26 0 32 7t6 37v476q0 24 -7 31t-31 10v78h26q43 0 73 -29t30 -73v-512q0 -51 -27 -79t-77 -28h-25z" />
    <glyph glyph-name="asterisk" unicode="*" horiz-adv-x="291" 
d="M22 634l30 54l63 -43v76h61v-75l60 43l32 -55l-65 -39l66 -27l-29 -48l-64 29v-71l-61 -3v75l-64 -35l-28 51l57 32z" />
    <glyph glyph-name="plus" unicode="+" horiz-adv-x="281" 
d="M17 297v76h86v86h74v-86h87v-76h-87v-85h-75v85h-85z" />
    <glyph glyph-name="comma" unicode="," horiz-adv-x="141" 
d="M-14 -78l45 186h88l-45 -186h-88z" />
    <glyph glyph-name="hyphen" unicode="-" horiz-adv-x="245" 
d="M22 265v86h202v-86h-202z" />
    <glyph glyph-name="period" unicode="." horiz-adv-x="135" 
d="M22 0v108h92v-108h-92z" />
    <glyph glyph-name="slash" unicode="/" horiz-adv-x="239" 
d="M22 0l117 721h78l-116 -721h-79z" />
    <glyph glyph-name="zero" unicode="0" horiz-adv-x="281" 
d="M259 81q0 -89 -124 -89q-113 0 -113 89v560q0 90 116 90q58 0 89.5 -22.5t31.5 -64.5v-563zM141 70q7 0 12.5 7.5t5.5 17.5v529q0 22 -16 22q-9 0 -15 -5t-6 -15v-533q0 -10 5.5 -16.5t13.5 -6.5z" />
    <glyph glyph-name="one" unicode="1" horiz-adv-x="281" 
d="M39 482v82q23 11 32 22t18 35t13 46.5t4 53.5h88v-721h-102v482h-53z" />
    <glyph glyph-name="two" unicode="2" horiz-adv-x="281" 
d="M21 0v85l126 372q8 21 10 32t2 26v110q0 24 -18 24t-18 -25v-145h-100v158q0 50 28 71.5t94 21.5q55 0 85.5 -23.5t30.5 -66.5v-102q0 -37 -10 -68l-130 -391h141v-79h-241z" />
    <glyph glyph-name="three" unicode="3" horiz-adv-x="281" 
d="M191 382l32 -12q7 -6 12 -10.5t9 -12.5q15 -26 15 -44v-223q0 -46 -30 -67.5t-95 -21.5q-112 0 -112 92v211h100v-199q0 -25 17 -25q20 0 20 26v210q0 28 -4 34t-25 6h-38v78h37q19 0 24.5 8.5t5.5 37.5v152q0 13 -4 21.5t-11 8.5q-8 0 -15 -8t-7 -19v-145h-100v160
q0 47 28.5 68.5t92.5 21.5q116 0 116 -88v-166q0 -29 -10.5 -53.5t-57.5 -40.5z" />
    <glyph glyph-name="four" unicode="4" horiz-adv-x="280" 
d="M3 117v68l95 536h142v-535h18v-70h-19v-116h-98v117h-138zM155 631l-65 -445l51 -1v258l22 188h-8z" />
    <glyph glyph-name="five" unicode="5" horiz-adv-x="281" 
d="M122 465q17 17 28.5 23t30.5 6q34 0 55.5 -23.5t21.5 -59.5v-331q0 -91 -119 -91q-118 0 -118 90v207h101v-200q0 -24 17 -24q19 0 19 26v282q0 27 -17 27q-18 0 -18 -22v-33h-102v379h240v-85h-139v-171z" />
    <glyph glyph-name="six" unicode="6" horiz-adv-x="281" 
d="M122 395q17 19 29.5 25.5t32.5 6.5q34 0 54.5 -22.5t20.5 -59.5v-263q0 -92 -125 -92q-112 0 -112 91v561q0 87 121 87q62 0 89 -21t27 -70v-160h-100v147q0 23 -16 23q-9 0 -15 -6t-6 -17v-230zM139 68q20 0 20 26v220q0 24 -20 24q-6 0 -11.5 -7t-5.5 -16v-222
q0 -25 17 -25z" />
    <glyph glyph-name="seven" unicode="7" horiz-adv-x="281" 
d="M18 478v243h238v-94l-96 -627h-101l102 641h-47v-163h-96z" />
    <glyph glyph-name="eight" unicode="8" horiz-adv-x="281" 
d="M195 376q36 -14 50 -33.5t14 -54.5v-207q0 -91 -120 -91q-117 0 -117 92v201q0 24 9 45q14 29 53 46l-28 12q-34 21 -34 84v173q0 87 119 87q118 0 118 -89v-171q0 -43 -14 -64t-50 -30zM139 415q20 0 20 26v185q0 10 -5.5 16.5t-12.5 6.5q-19 0 -19 -22v-188
q0 -10 5 -17t12 -7zM141 69q7 0 12.5 7.5t5.5 18.5v223q0 9 -6 16t-14 7q-6 0 -11.5 -7.5t-5.5 -18.5v-223q0 -10 5.5 -16.5t13.5 -6.5z" />
    <glyph glyph-name="nine" unicode="9" horiz-adv-x="281" 
d="M159 323q-17 -19 -29.5 -25.5t-32.5 -6.5q-34 0 -54.5 22.5t-20.5 59.5v264q0 91 126 91q111 0 111 -91v-561q0 -86 -121 -86q-62 0 -89 21t-27 69v160h100v-147q0 -23 16 -23q9 0 15 6t6 17v230zM142 381q17 0 17 22v222q0 25 -17 25q-20 0 -20 -26v-220q0 -23 20 -23z
" />
    <glyph glyph-name="colon" unicode=":" horiz-adv-x="163" 
d="M36 0v108h92v-108h-92zM36 299v109h92v-109h-92z" />
    <glyph glyph-name="semicolon" unicode=";" horiz-adv-x="159" 
d="M30 299v109h92v-109h-92zM-11 -78l46 186h87l-45 -186h-88z" />
    <glyph glyph-name="less" unicode="&#x3c;" horiz-adv-x="253" 
d="M22 294l108 217h100l-111 -215l112 -217h-98z" />
    <glyph glyph-name="equal" unicode="=" horiz-adv-x="281" 
d="M17 354v62h248v-62h-248zM17 253v63h248v-63h-248z" />
    <glyph glyph-name="greater" unicode="&#x3e;" horiz-adv-x="253" 
d="M22 511h99l110 -215l-108 -217h-100l111 216z" />
    <glyph glyph-name="question" unicode="?" horiz-adv-x="263" 
d="M85 0v108h92v-108h-92zM22 481v163q0 88 117 88q48 0 75 -25t27 -70v-139q0 -55 -10 -76l-39 -98q-15 -38 -15 -86v-64h-92v70l1 48q0 7 1 13t8 23l47 117l7 35v36v116q0 21 -18 21q-17 0 -17 -22v-150h-92z" />
    <glyph glyph-name="at" unicode="@" horiz-adv-x="845" 
d="M456 229q-6 -18 -20 -34q-36 -43 -83 -43q-21 0 -48 11q-78 34 -78 178l4 35q7 49 23 85.5t43 69.5q24 28 53.5 42.5t57.5 14.5q60 0 86 -51l5 -10l9 54h49l-37 -213l-13 -85q-3 -20 -3 -34t1 -20q3 -6 3 -9q10 -28 41 -28q9 0 14 2q14 5 25.5 14t29.5 31q19 20 33 53.5
t21 77.5q2 12 3 27t1 29q0 114 -70.5 185.5t-181.5 71.5q-22 0 -46 -3q-110 -16 -183.5 -106.5t-73.5 -215.5v-23q2 -11 2 -15q12 -129 95 -208t195 -79q59 0 116 24q73 30 130 92l25 30l18 -43l-25 -29q-115 -121 -268 -121q-154 0 -252.5 112.5t-98.5 285.5q0 77 31 140.5
t90 116.5q88 79 197 91q24 3 47 3q133 0 220 -87t87 -219q0 -34 -6 -69q-11 -61 -37.5 -109t-63.5 -76q-21 -16 -41.5 -23t-41.5 -7q-29 0 -51.5 15t-29.5 40q-1 4 -2 10.5t-1 18.5zM286 291q0 -18 3.5 -33.5t9.5 -27.5q17 -36 59 -36q26 0 45 19q14 14 22.5 30.5t22.5 55.5
q9 25 19 73l1 10l7 42q3 23 3 37q0 15 -1 21q-4 28 -22.5 44.5t-43.5 16.5q-15 0 -26 -5q-27 -11 -44.5 -34.5t-35.5 -76.5q-7 -21 -12 -47.5t-6 -44.5t-1 -44z" />
    <glyph glyph-name="A" unicode="A" horiz-adv-x="270" 
d="M-8 0l63 721h160l63 -721h-97l-16 181h-60l-15 -181h-98zM128 537l-20 -285h54l-19 285l-5 116h-6z" />
    <glyph glyph-name="B" unicode="B" horiz-adv-x="274" 
d="M18 0v721h129q109 0 109 -80v-203q0 -31 -15 -46t-57 -28q44 -11 58 -24t14 -43v-215q0 -82 -109 -82h-129zM119 332v-260h14q22 0 22 35v204q0 21 -20 21h-16zM119 650v-248h14q10 0 16 9t6 24v183q0 12 -7 22t-17 10h-12z" />
    <glyph glyph-name="C" unicode="C" horiz-adv-x="274" 
d="M256 294v-208q0 -31 -16 -55.5t-37 -32.5t-68 -8q-61 0 -89 24t-28 77v550q0 27 15 50t32.5 28.5t35 8t40.5 2.5h6q109 0 109 -91v-157h-101v147q0 20 -16 20q-20 0 -20 -21v-530q0 -10 5 -16t13 -6q18 0 18 22v196h101z" />
    <glyph glyph-name="D" unicode="D" horiz-adv-x="274" 
d="M18 0v721h130q108 0 108 -81v-554q0 -86 -107 -86h-131zM119 651v-577h16q20 0 20 31v518q0 28 -20 28h-16z" />
    <glyph glyph-name="E" unicode="E" horiz-adv-x="217" 
d="M18 0v721h190v-81h-89v-218h83v-81h-83v-261h89v-80h-190z" />
    <glyph glyph-name="F" unicode="F" horiz-adv-x="208" 
d="M18 0v721h190v-81h-89v-225h83v-80h-83v-335h-101z" />
    <glyph glyph-name="G" unicode="G" horiz-adv-x="274" 
d="M192 29q-22 -25 -38.5 -32.5t-49.5 -7.5q-46 0 -66 22t-20 71v555q0 47 27 69t87 22q58 0 91 -23t33 -64v-163h-101v150q0 6 -3 11q-6 10 -16 10q-17 0 -17 -20v-537q0 -21 17 -21q19 0 19 20v180h-21v76h122v-347h-50z" />
    <glyph glyph-name="H" unicode="H" horiz-adv-x="274" 
d="M18 0v721h101v-298h36v298h101v-721h-101v345h-36v-345h-101z" />
    <glyph glyph-name="I" unicode="I" horiz-adv-x="137" 
d="M18 721h101v-721h-101v721z" />
    <glyph glyph-name="J" unicode="J" horiz-adv-x="274" 
d="M256 721v-635q0 -95 -123 -95q-61 0 -88 22t-27 72v211h101v-200q0 -21 19 -21q17 0 17 20v626h101z" />
    <glyph glyph-name="K" unicode="K" horiz-adv-x="268" 
d="M18 0v721h101v-183l-4 -103h6l53 286h100l-71 -321l73 -400h-106l-51 384h-5l5 -156v-228h-101z" />
    <glyph glyph-name="L" unicode="L" horiz-adv-x="176" 
d="M18 0v721h101v-641h64v-80h-165z" />
    <glyph glyph-name="M" unicode="M" horiz-adv-x="467" 
d="M18 0v721h153l55 -396l4 -139h7l4 139l55 396h153v-721h-95v362l18 184h-8l-82 -546h-97l-82 546h-8l19 -184v-362h-96z" />
    <glyph glyph-name="N" unicode="N" horiz-adv-x="297" 
d="M18 0v721h101l84 -437h7l-22 165v272h91v-721h-97l-88 439h-5l20 -161v-278h-91z" />
    <glyph glyph-name="O" unicode="O" horiz-adv-x="274" 
d="M256 83q0 -50 -28.5 -70.5t-97.5 -20.5q-112 0 -112 90v555q0 49 29 71t95 22q61 0 87.5 -21.5t26.5 -71.5v-554zM136 75q19 0 19 19v535q0 8 -5 14t-13 6q-6 0 -12 -6t-6 -15v-535q0 -18 17 -18z" />
    <glyph glyph-name="P" unicode="P" horiz-adv-x="274" 
d="M18 0v721h132q50 0 78 -22t28 -62v-282q0 -48 -27 -68t-93 -20h-17v-267h-101zM119 344h17q19 0 19 29v251q0 21 -17 21h-19v-301z" />
    <glyph glyph-name="Q" unicode="Q" horiz-adv-x="274" 
d="M263 0h-134q-111 0 -111 89v549q0 44 31 68t88 24q56 0 87.5 -24.5t31.5 -68.5v-471q0 -45 -8.5 -61.5t-41.5 -32.5h57v-72zM137 81q18 0 18 23v518q0 18 -18 18q-6 0 -12 -6t-6 -15v-515q0 -10 5.5 -16.5t12.5 -6.5z" />
    <glyph glyph-name="R" unicode="R" horiz-adv-x="275" 
d="M18 0v721h130q48 0 78 -24t30 -62v-174q0 -36 -15.5 -55.5t-53.5 -33.5q69 -14 69 -76v-234q0 -25 1 -31.5t10 -30.5h-105q-7 21 -7 45v256q0 31 -21 31h-15v-332h-101zM119 643v-233h15q21 0 21 28v179q0 10 -5 18t-13 8h-18z" />
    <glyph glyph-name="S" unicode="S" horiz-adv-x="274" 
d="M155 465v161q0 20 -16 20q-20 0 -20 -20v-108q0 -30 5 -42q1 -3 7 -10t11 -13l77 -91q13 -15 15 -18q6 -8 10 -15.5t8 -26t4 -35.5v-178q0 -47 -33 -73t-91 -26q-114 0 -114 96v209h101v-199q0 -19 17 -19q8 0 13.5 5.5t5.5 13.5v161q0 18 -3 25t-18 25l-76 94l-23 31
q-17 24 -17 65v142q0 32 15 55t42 30q22 8 63 8h9q109 0 109 -96v-171h-101z" />
    <glyph glyph-name="T" unicode="T" horiz-adv-x="221" 
d="M-5 640v81h230v-81h-65v-640h-101v640h-64z" />
    <glyph glyph-name="U" unicode="U" horiz-adv-x="274" 
d="M256 721v-637q0 -44 -32 -69t-89 -25q-55 0 -86 24t-31 68v639h101v-623q0 -21 17 -21q19 0 19 19v625h101z" />
    <glyph glyph-name="V" unicode="V" horiz-adv-x="262" 
d="M-3 721h99l26 -409l6 -208h7l4 208l26 409h100l-60 -721h-149z" />
    <glyph glyph-name="W" unicode="W" horiz-adv-x="475" 
d="M-3 721h99l34 -357l4 -213h8l3 213l23 357h139l22 -357l4 -213h8l4 213l32 357h101l-64 -721h-143l-26 343l-4 211h-7l-6 -211l-26 -343h-141z" />
    <glyph glyph-name="X" unicode="X" horiz-adv-x="266" 
d="M-3 0l59 386l-53 335h94l28 -198l4 -93h9l4 93l27 198h95l-53 -335l59 -386h-102l-26 234l-5 115h-7l-5 -115l-27 -234h-101z" />
    <glyph glyph-name="Y" unicode="Y" horiz-adv-x="270" 
d="M-8 721h103l36 -247l3 -119h9l4 119l36 247h95l-92 -476v-245h-101v245z" />
    <glyph glyph-name="Z" unicode="Z" horiz-adv-x="229" 
d="M8 0v88l115 552h-115v81h214v-87l-112 -554h112v-80h-214z" />
    <glyph glyph-name="bracketleft" unicode="[" horiz-adv-x="158" 
d="M36 0v721h115v-66h-29v-588h29v-67h-115z" />
    <glyph glyph-name="backslash" unicode="\" horiz-adv-x="326" 
d="M43 720h90l126 -720h-90z" />
    <glyph glyph-name="bracketright" unicode="]" horiz-adv-x="158" 
d="M8 0v67h28v588h-28v66h114v-721h-114z" />
    <glyph glyph-name="asciicircum" unicode="^" horiz-adv-x="245" 
d="M1 625l80 113h83l79 -113h-58l-63 82l-61 -82h-60z" />
    <glyph glyph-name="underscore" unicode="_" horiz-adv-x="482" 
d="M43 -32v32h360v-32h-360z" />
    <glyph glyph-name="grave" unicode="`" horiz-adv-x="146" 
d="M-61 734l85 -3l93 -105h-61z" />
    <glyph glyph-name="a" unicode="a" 
d="M106 415h-92v103q0 33 29 53t78 20q51 0 78 -19t27 -56v-516h-84v22q-16 -16 -29.5 -22t-30.5 -6q-68 0 -68 72v232q0 12 5 23.5t9 14.5l11 9l81 59q15 11 15 19v86q0 14 -17 14q-12 0 -12 -12v-96zM135 310q-29 -21 -29 -41v-189q0 -13 12 -13q17 0 17 12v231z" />
    <glyph glyph-name="b" unicode="b" 
d="M14 0v721h92v-150q13 11 23.5 15t26.5 4q32 0 51 -18t19 -49v-457q0 -74 -67 -74q-29 0 -61 29v-21h-84zM122 63q13 0 13 14v431q0 14 -13 14q-16 0 -16 -13v-433q0 -13 16 -13z" />
    <glyph glyph-name="c" unicode="c" 
d="M226 243v-174q0 -75 -111 -75q-101 0 -101 73v449q0 32 29.5 52t76.5 20q48 0 77 -20t29 -53v-134h-91v130q0 13 -16 13q-13 0 -13 -14v-436q0 -16 14 -16q15 0 15 14v171h91z" />
    <glyph glyph-name="d" unicode="d" 
d="M142 25q-33 -33 -64 -33q-64 0 -64 74v455q0 30 19 49t49 19q18 0 27.5 -3.5t25.5 -17.5v153h91v-721h-84v25zM119 61q16 0 16 15v433q0 13 -16 13q-13 0 -13 -15v-430q0 -16 13 -16z" />
    <glyph glyph-name="e" unicode="e" 
d="M226 238v-176q0 -72 -109 -72q-48 0 -75.5 19.5t-27.5 54.5v453q0 35 28 54t81 19q103 0 103 -69v-239h-120v-213q0 -5 4 -9t11 -4q14 0 14 13v169h91zM106 507v-149h29v150q0 12 -14 12q-15 0 -15 -13z" />
    <glyph glyph-name="f" unicode="f" horiz-adv-x="141" 
d="M-3 508v73h18v62q0 44 14 61t52 17h63v-63l-15 -1q-23 0 -23 -28v-48h38v-73h-38v-508h-91v508h-18z" />
    <glyph glyph-name="g" unicode="g" horiz-adv-x="242" 
d="M227 581v-637q0 -68 -111 -68q-44 0 -73 20t-29 51v29h92v-24q0 -16 17 -16q13 0 13 16v70q-26 -22 -68 -22q-29 0 -41 15t-12 52v454q0 27 21 47t50 20q17 0 28.5 -6t28.5 -25v24h84zM121 64q15 0 15 14v432q0 14 -16 14q-5 0 -9 -4t-4 -10v-432q0 -14 14 -14z" />
    <glyph glyph-name="h" unicode="h" 
d="M14 0v721h92v-156q14 15 24.5 20t26.5 5q69 0 69 -70v-520h-91v506q0 14 -14 14q-15 0 -15 -14v-506h-92z" />
    <glyph glyph-name="i" unicode="i" horiz-adv-x="120" 
d="M14 614v107h92v-107h-92zM14 0v581h92v-581h-92z" />
    <glyph glyph-name="j" unicode="j" horiz-adv-x="122" 
d="M16 614v107h91v-107h-91zM-11 -117v72q15 1 21 7t6 21v598h91v-606q0 -50 -26 -71t-92 -21z" />
    <glyph glyph-name="k" unicode="k" 
d="M14 0v721h94v-270l-7 -86h7l44 211h94l-58 -240l60 -336h-100l-42 321h-5l5 -136v-185h-92z" />
    <glyph glyph-name="l" unicode="l" horiz-adv-x="120" 
d="M14 0v721h92v-721h-92z" />
    <glyph glyph-name="m" unicode="m" horiz-adv-x="361" 
d="M14 0v581h84v-23q20 19 32 25t32 6q33 0 59 -27q15 17 26.5 22t32.5 5q67 0 67 -66v-523h-92v503q0 16 -14 16q-15 0 -15 -15v-504h-91v501q0 7 -4 12t-9 5q-16 0 -16 -16v-502h-92z" />
    <glyph glyph-name="n" unicode="n" 
d="M14 0v581h84v-24q17 19 29.5 25.5t30.5 6.5q30 0 49 -19t19 -49v-521h-91v501q0 15 -14 15q-15 0 -15 -14v-502h-92z" />
    <glyph glyph-name="o" unicode="o" 
d="M226 68q0 -23 -15 -44t-32 -24.5t-30.5 -6t-32.5 -2.5l-10 -1q-42 0 -67 21t-25 57v443q0 78 109 78q47 0 75 -20t28 -52v-449zM120 59q15 0 15 12v436q0 14 -14 14q-15 0 -15 -16v-434q0 -12 14 -12z" />
    <glyph glyph-name="p" unicode="p" 
d="M14 -116v697h84v-25q16 20 27.5 26t32.5 6q68 0 68 -70v-450q0 -76 -67 -76q-18 0 -27 4t-26 20v-132h-92zM121 64q14 0 14 16v422q0 16 -14 16q-15 0 -15 -16v-423q0 -15 15 -15z" />
    <glyph glyph-name="q" unicode="q" 
d="M135 17q-14 -16 -24.5 -21t-30.5 -5q-66 0 -66 75v454q0 30 18 49t47 19q19 0 30.5 -5t32.5 -23v21h84v-697h-91v133zM120 63q15 0 15 14v425q0 14 -15 14q-14 0 -14 -14v-425q0 -14 14 -14z" />
    <glyph glyph-name="r" unicode="r" 
d="M14 0v581h84v-24q33 30 63 30q29 0 47 -17t18 -47v-233h-91v213q0 18 -17 18q-12 0 -12 -17v-504h-92z" />
    <glyph glyph-name="s" unicode="s" 
d="M135 397v109q0 15 -15 15q-14 0 -14 -14v-98q0 -15 3 -21l12 -16l80 -92l17 -22q8 -13 8 -50v-138q0 -38 -29 -59t-82 -21q-47 0 -74 21t-27 58v154h92v-148q0 -14 14 -14q15 0 15 13v125q0 10 -7 24l-16 16l-66 79l-17 19q-15 20 -15 57v123q0 35 28 54t78 19
q106 0 106 -83v-110h-91z" />
    <glyph glyph-name="t" unicode="t" horiz-adv-x="141" 
d="M-3 510v71h21v89h92v-89h34v-70h-34v-409q0 -24 22 -24h12v-78h-50q-42 0 -59 15t-17 54v441h-21z" />
    <glyph glyph-name="u" unicode="u" 
d="M142 25q-29 -34 -60 -34q-68 0 -68 78v512h92v-501q0 -15 13 -15q16 0 16 14v502h91v-581h-84v25z" />
    <glyph glyph-name="v" unicode="v" horiz-adv-x="228" 
d="M-2 576h92l17 -311l3 -193h8l3 193l17 311h92l-36 -576h-159z" />
    <glyph glyph-name="w" unicode="w" horiz-adv-x="414" 
d="M0 576h91l17 -269l3 -210h9l3 208l19 271h130l19 -271l3 -208h9l3 210l17 269h91l-45 -576h-131l-23 309l-4 190h-8l-4 -190l-23 -309h-131z" />
    <glyph glyph-name="x" unicode="x" horiz-adv-x="251" 
d="M0 0l49 325l-43 251h91l22 -151l3 -75h8l3 75l21 151h90l-42 -251l49 -325h-99l-19 169l-4 129h-7l-4 -129l-19 -169h-99z" />
    <glyph glyph-name="y" unicode="y" horiz-adv-x="238" 
d="M0 576h89l20 -325l3 -177h8l5 177l18 325h92l-40 -629q0 -11 -2.5 -19.5t-7.5 -16.5q-19 -27 -83 -27h-83v68h56q33 0 33 23v25h-32q-16 0 -24.5 4t-12 11t-3.5 26z" />
    <glyph glyph-name="z" unicode="z" horiz-adv-x="177" 
d="M8 511v70h162v-60l-67 -447h67v-74h-162v69l71 442h-71z" />
    <glyph glyph-name="braceleft" unicode="{" horiz-adv-x="351" 
d="M43 360q28 0 46 20t18 52v326q0 36 21.5 56.5t62.5 20.5h91v-53h-12q-33 0 -45 -12t-12 -45v-282q0 -36 -27 -61q-21 -19 -48 -22q14 -2 26 -7q49 -24 49 -76v-282q0 -34 11.5 -45.5t45.5 -11.5h12v-53h-91q-40 0 -62 20t-22 57v326q0 32 -18 52t-46 20z" />
    <glyph glyph-name="bar" unicode="|" horiz-adv-x="190" 
d="M43 0v720h90v-720h-90z" />
    <glyph glyph-name="braceright" unicode="}" horiz-adv-x="351" 
d="M43 -115v53h12q34 0 46 12t12 45v282q0 53 49 76q11 5 26 7q-15 2 -26 7q-49 23 -49 76v282q0 34 -11.5 45.5t-46.5 11.5h-12v53h91q41 0 63 -20t22 -57v-326q0 -31 17.5 -51.5t45.5 -20.5q-27 0 -45 -20t-18 -52v-326q0 -36 -22.5 -56.5t-62.5 -20.5h-91z" />
    <glyph glyph-name="asciitilde" unicode="~" horiz-adv-x="244" 
d="M0 808q19 21 33 28t36 7q14 0 24.5 -2t40.5 -12q44 -12 55 -12q14 0 21.5 4t18.5 18l15 -36q-26 -39 -63 -39q-10 0 -21.5 2t-35.5 9.5t-40 11t-27 3.5q-13 0 -21.5 -4t-19.5 -18z" />
    <glyph glyph-name="nonbreakingspace" unicode="&#xa0;" horiz-adv-x="500" 
 />
    <glyph glyph-name="exclamdown" unicode="&#xa1;" horiz-adv-x="163" 
d="M36 613v108h92v-108h-92zM38 0l5 546h77l5 -546h-87z" />
    <glyph glyph-name="cent" unicode="&#xa2;" horiz-adv-x="249" 
d="M111 0h-18l-22 5q-49 17 -49 62v449q0 26 16 41q5 5 16 12t22.5 12.5t19.5 5.5h19v82h24v-82l17 -1q10 0 21 -4q50 -19 50 -67v-134h-91v130q0 13 -12 13q-10 0 -10 -14v-436q0 -16 10 -16q12 0 12 14v171h91v-174q0 -27 -22 -48t-50 -21h-19v-95h-25v95z" />
    <glyph glyph-name="sterling" unicode="&#xa3;" horiz-adv-x="218" 
d="M22 229l4 36h28l48 456h95l-50 -457h48l-1 -36h-50l-16 -147l66 -1v-80h-170l26 229h-28z" />
    <glyph glyph-name="currency" unicode="&#xa4;" horiz-adv-x="494" 
d="M43 212l60 60q-13 17 -21 42.5t-8 48.5q0 48 29 88l-59 57q14 20 33 37l62 -60q41 30 90 30q50 0 90 -29l60 60l10 -8q14 -12 25 -30l-59 -56q29 -41 29 -91t-30 -91l60 -60l-8 -8l-8 -9l-20 -18l-59 60q-41 -30 -90 -30q-50 0 -90 31l-62 -60l-9 8l-8 9l-9 9zM126 360
q0 -41 30 -72t73 -31t73 30t30 73t-30 73t-73 30t-73 -30t-30 -73z" />
    <glyph glyph-name="yen" unicode="&#xa5;" horiz-adv-x="319" 
d="M22 721h97l43 -286l47 286h87l-75 -411h76l-1 -35h-80l-4 -33h84v-30h-87v-212h-102v212h-85v31h83l-3 33l-79 -1v35h73z" />
    <glyph glyph-name="section" unicode="&#xa7;" horiz-adv-x="284" 
d="M161 548v91q0 17 -17 17q-21 0 -21 -17v-113q0 -14 11 -18l106 -43q23 -11 23 -34v-381q0 -25 -14 -44.5t-35 -23.5q-25 -7 -77 -7l-12 -1q-56 0 -79.5 17t-23.5 58v103h98v-89q0 -18 21 -18q8 0 13.5 5.5t5.5 13.5v110q0 13 -12 17l-106 45q-20 7 -20 31v385q0 31 19 52
q12 14 34.5 19t72.5 5q64 0 89.5 -17t25.5 -59v-104h-102zM135 293l25 -11v103q0 16 -11 21l-28 12v-99q0 -20 14 -26z" />
    <glyph glyph-name="dieresis" unicode="&#xa8;" horiz-adv-x="197" 
d="M1 626v95h81v-95h-81zM116 626v95h80v-95h-80z" />
    <glyph glyph-name="copyright" unicode="&#xa9;" horiz-adv-x="932" 
d="M58 361q0 74 28 142t81.5 121.5t121.5 81t142 27.5q73 0 141 -27t123 -82q109 -109 109 -263q0 -155 -109 -264t-264 -109t-264 109t-109 264zM112 361q0 -65 24 -124.5t69.5 -105.5t104.5 -70.5t121 -24.5t120.5 24t104 70t70 107t24.5 123q0 64 -23.5 123t-69 105.5
t-105 71t-121.5 24.5q-63 0 -120.5 -23t-104.5 -71q-94 -96 -94 -229zM602 541l-33 -47q-37 31 -82 40q-9 1 -17 2.5t-19 1.5q-66 0 -115.5 -42t-59.5 -108q-2 -8 -2 -17.5v-14.5q0 -67 40.5 -116.5t105.5 -60.5q7 -1 14 -1.5t14 -0.5q53 0 97 28l23 16l33 -47
q-32 -27 -70 -41.5t-81 -14.5q-103 0 -173 68t-70 167q0 22 4 46t13 47q26 70 85 110.5t135 40.5h18.5t26.5 -4q64 -11 113 -52z" />
    <glyph glyph-name="ordfeminine" unicode="&#xaa;" horiz-adv-x="482" 
d="M53 336h350v-68h-350v68zM329 655v65h74v-335h-75v69l-3 -8l-4 -8q-16 -28 -47 -45t-69 -17q-32 0 -62 13q-80 31 -97 126l-3 39q0 77 48 127t114 50q15 0 30 -3q55 -12 85 -57l5 -9zM120 554q-1 -5 -0.5 -11.5t2.5 -11.5q6 -35 28 -58t55 -29q14 -2 22 -2q21 0 39 9
q50 22 62 80q2 7 2 22t-2 23q-12 58 -60 80q-9 4 -22.5 7t-21.5 3q-38 0 -66.5 -24.5t-36.5 -67.5z" />
    <glyph glyph-name="guillemotleft" unicode="&#xab;" horiz-adv-x="395" 
d="M163 294l108 217h101l-111 -215l112 -217h-98zM22 294l108 217h100l-111 -215l112 -217h-98z" />
    <glyph glyph-name="logicalnot" unicode="&#xac;" horiz-adv-x="638" 
d="M43 360v90h504v-234h-72v144h-432z" />
    <glyph glyph-name="registered" unicode="&#xae;" horiz-adv-x="932" 
d="M58 361q0 74 28 142t81.5 121.5t121.5 81t142 27.5q73 0 141 -27t123 -82q109 -109 109 -263q0 -155 -109 -264t-264 -109t-264 109t-109 264zM112 361q0 -65 24 -124.5t69.5 -105.5t104.5 -70.5t121 -24.5t120.5 24t104 70t70 107t24.5 123q0 64 -23.5 123t-69 105.5
t-105 71t-121.5 24.5q-63 0 -120.5 -23t-104.5 -71q-94 -96 -94 -229zM311 135v460h114q39 0 62.5 -6t42.5 -21q33 -29 42 -72q3 -17 3 -31q0 -47 -28 -79.5t-74 -40.5l-15 -1l141 -209h-77l-146 223v-223h-65zM376 381h38q44 0 69 21t25 58q0 81 -89 81h-43v-160z" />
    <glyph glyph-name="macron" unicode="&#xaf;" horiz-adv-x="187" 
d="M1 624v57h185v-57h-185z" />
    <glyph glyph-name="plusminus" unicode="&#xb1;" horiz-adv-x="594" 
d="M506 87v-68h-462v68h462zM309 453v-122h197v-68h-197v-122h-68v122h-197v68h197v122h68z" />
    <glyph glyph-name="acute" unicode="&#xb4;" horiz-adv-x="138" 
d="M32 625l94 107l84 2l-116 -109h-62z" />
    <glyph glyph-name="mu" unicode="&#xb5;" horiz-adv-x="623" 
d="M166 449v-296q0 -71 14 -95t50 -24q57 0 95 81t38 204v130h92v-328q0 -45 9.5 -66t28.5 -21q20 0 31.5 20.5t11.5 61.5v14h21l1 -9v-13q0 -55 -23.5 -86t-66.5 -31q-49 0 -75.5 43t-26.5 129q-23 -89 -61.5 -130.5t-96.5 -41.5q-42 0 -73 26q-28 27 -40 77l-1 -28
q0 -65 32 -142t32 -91q0 -20 -11 -31t-31 -11q-23 0 -33 17t-10 53l2 58l2 89l-1 101l-2 95v245h92z" />
    <glyph glyph-name="paragraph" unicode="&#xb6;" horiz-adv-x="649" 
d="M241 720h316v-58h-316q-58 0 -99 -42t-41 -102q0 -58 41 -99t99 -41h67v238h61v-616h-61v320h-67q-82 0 -140 58t-58 142q0 83 57.5 141.5t140.5 58.5zM434 0v616h61v-616h-61z" />
    <glyph glyph-name="periodcentered" unicode="&#xb7;" horiz-adv-x="163" 
d="M36 274v108h92v-108h-92z" />
    <glyph glyph-name="periodcentered" unicode="&#x2219;" horiz-adv-x="163" 
d="M36 274v108h92v-108h-92z" />
    <glyph glyph-name="cedilla" unicode="&#xb8;" horiz-adv-x="69" 
d="M75 -187v30l36 56h-36v71h63v-81z" />
    <glyph glyph-name="ordmasculine" unicode="&#xba;" horiz-adv-x="482" 
d="M49 268v68h349v-68h-349zM43 554v15.5t4 21.5q13 65 61 105t113 40h15.5t22.5 -4q65 -13 105 -62.5t40 -114.5v-23q-3 -11 -4 -15q-14 -64 -62.5 -104t-113.5 -40q-15 0 -23 1q-10 3 -14 3q-54 11 -91.5 48t-48.5 92q-4 17 -4 37zM117 554l2 -20q13 -74 82 -89
q6 -1 11.5 -1.5t11.5 -0.5q38 0 66.5 24.5t36.5 65.5q2 16 2 22q0 60 -45 91q-12 9 -28 14.5t-33 5.5q-22 0 -43 -9q-50 -24 -61 -82z" />
    <glyph glyph-name="guillemotright" unicode="&#xbb;" horiz-adv-x="395" 
d="M22 511h99l110 -215l-108 -217h-100l111 216zM163 511h100l110 -215l-108 -217h-101l112 216z" />
    <glyph glyph-name="questiondown" unicode="&#xbf;" horiz-adv-x="263" 
d="M85 613v108h91v-108h-91zM241 240v-163q0 -88 -118 -88q-47 0 -74 25t-27 70v139q0 56 8 76l40 98q15 37 15 85v65h91v-71v-48q-1 -14 -8 -34l-47 -118l-7 -35v-37v-116q0 -20 17 -20q18 0 18 22v150h92z" />
    <glyph glyph-name="Agrave" unicode="&#xc0;" horiz-adv-x="270" 
d="M-8 0l63 721h160l63 -721h-97l-16 181h-60l-15 -181h-98zM128 537l-20 -285h54l-19 285l-5 116h-6zM1 909l85 -3l93 -105h-61z" />
    <glyph glyph-name="Aacute" unicode="&#xc1;" horiz-adv-x="270" 
d="M-8 0l63 721h160l63 -721h-97l-16 181h-60l-15 -181h-98zM128 537l-20 -285h54l-19 285l-5 116h-6zM98 800l94 107l84 2l-116 -109h-62z" />
    <glyph glyph-name="Acircumflex" unicode="&#xc2;" horiz-adv-x="270" 
d="M-8 0l63 721h160l63 -721h-97l-16 181h-60l-15 -181h-98zM128 537l-20 -285h54l-19 285l-5 116h-6zM13 800l80 113h83l79 -113h-58l-63 82l-61 -82h-60z" />
    <glyph glyph-name="Atilde" unicode="&#xc3;" horiz-adv-x="270" 
d="M-8 0l63 721h160l63 -721h-97l-16 181h-60l-15 -181h-98zM128 537l-20 -285h54l-19 285l-5 116h-6zM20 841q18 18 31.5 24.5t33.5 6.5q12 0 23 -2t37 -11q40 -10 53 -10q14 0 20 3t18 16l13 -32q-24 -35 -59 -35q-8 0 -20.5 2.5t-27 7t-36.5 9.5t-33 5q-21 0 -39 -21z
" />
    <glyph glyph-name="Adieresis" unicode="&#xc4;" horiz-adv-x="270" 
d="M15 766v111h91v-111h-91zM150 766v111h90v-111h-90zM-8 0l63 721h160l63 -721h-97l-16 181h-60l-15 -181h-98zM128 537l-20 -285h54l-19 285l-5 116h-6z" />
    <glyph glyph-name="Aring" unicode="&#xc5;" horiz-adv-x="270" 
d="M57 811q0 30 21 52t52 22q29 0 50 -21t21 -52q0 -30 -20.5 -51.5t-50.5 -21.5t-51.5 21.5t-21.5 50.5zM-8 0l63 721h160l63 -721h-97l-16 181h-60l-15 -181h-98zM96 811q0 -13 10 -23t24 -10q13 0 23 10t10 24q0 15 -9.5 24.5t-23.5 9.5t-24 -10t-10 -25zM128 537
l-20 -285h54l-19 285l-5 116h-6z" />
    <glyph glyph-name="AE" unicode="&#xc6;" horiz-adv-x="375" 
d="M-8 0l110 721h264v-82h-88v-221h82v-80h-83v-257h88v-81h-190v183h-65l-26 -183h-92zM177 624l-56 -360h56v360z" />
    <glyph glyph-name="Ccedilla" unicode="&#xc7;" horiz-adv-x="274" 
d="M101 -223v37l40 60h-39v89h75v-96zM256 294v-208q0 -31 -16 -55.5t-37 -32.5t-68 -8q-61 0 -89 24t-28 77v550q0 27 15 50t32.5 28.5t35 8t40.5 2.5h6q109 0 109 -91v-157h-101v147q0 20 -16 20q-20 0 -20 -21v-530q0 -10 5 -16t13 -6q18 0 18 22v196h101z" />
    <glyph glyph-name="Egrave" unicode="&#xc8;" horiz-adv-x="217" 
d="M18 0v721h190v-81h-89v-218h83v-81h-83v-261h89v-80h-190zM-26 909l85 -3l93 -105h-61z" />
    <glyph glyph-name="Eacute" unicode="&#xc9;" horiz-adv-x="217" 
d="M18 0v721h190v-81h-89v-218h83v-81h-83v-261h89v-80h-190zM71 800l94 107l84 2l-116 -109h-62z" />
    <glyph glyph-name="Ecircumflex" unicode="&#xca;" horiz-adv-x="217" 
d="M18 0v721h190v-81h-89v-218h83v-81h-83v-261h89v-80h-190zM-13 800l80 113h83l79 -113h-58l-63 82l-61 -82h-60z" />
    <glyph glyph-name="Edieresis" unicode="&#xcb;" horiz-adv-x="217" 
d="M18 0v721h190v-81h-89v-218h83v-81h-83v-261h89v-80h-190zM11 801v95h81v-95h-81zM126 801v95h80v-95h-80z" />
    <glyph glyph-name="Igrave" unicode="&#xcc;" horiz-adv-x="137" 
d="M18 721h101v-721h-101v721zM-65 909l85 -3l93 -105h-61z" />
    <glyph glyph-name="Iacute" unicode="&#xcd;" horiz-adv-x="137" 
d="M18 721h101v-721h-101v721zM32 800l94 107l84 2l-116 -109h-62z" />
    <glyph glyph-name="Icircumflex" unicode="&#xce;" horiz-adv-x="137" 
d="M18 721h101v-721h-101v721zM-53 800l80 113h83l79 -113h-58l-63 82l-61 -82h-60z" />
    <glyph glyph-name="Idieresis" unicode="&#xcf;" horiz-adv-x="137" 
d="M18 721h101v-721h-101v721zM-29 801v95h81v-95h-81zM86 801v95h80v-95h-80z" />
    <glyph glyph-name="Ntilde" unicode="&#xd1;" horiz-adv-x="297" 
d="M18 0v721h101l84 -437h7l-22 165v272h91v-721h-97l-88 439h-5l20 -161v-278h-91zM34 841q18 18 31.5 24.5t33.5 6.5q12 0 23 -2t37 -11q40 -10 53 -10q14 0 20 3t18 16l13 -32q-24 -35 -59 -35q-8 0 -20.5 2.5t-27 7t-36.5 9.5t-33 5q-21 0 -39 -21z" />
    <glyph glyph-name="Ograve" unicode="&#xd2;" horiz-adv-x="274" 
d="M256 83q0 -50 -28.5 -70.5t-97.5 -20.5q-112 0 -112 90v555q0 49 29 71t95 22q61 0 87.5 -21.5t26.5 -71.5v-554zM136 75q19 0 19 19v535q0 8 -5 14t-13 6q-6 0 -12 -6t-6 -15v-535q0 -18 17 -18zM3 909l85 -3l93 -105h-61z" />
    <glyph glyph-name="Oacute" unicode="&#xd3;" horiz-adv-x="274" 
d="M256 83q0 -50 -28.5 -70.5t-97.5 -20.5q-112 0 -112 90v555q0 49 29 71t95 22q61 0 87.5 -21.5t26.5 -71.5v-554zM136 75q19 0 19 19v535q0 8 -5 14t-13 6q-6 0 -12 -6t-6 -15v-535q0 -18 17 -18zM100 800l94 107l84 2l-116 -109h-62z" />
    <glyph glyph-name="Ocircumflex" unicode="&#xd4;" horiz-adv-x="274" 
d="M256 83q0 -50 -28.5 -70.5t-97.5 -20.5q-112 0 -112 90v555q0 49 29 71t95 22q61 0 87.5 -21.5t26.5 -71.5v-554zM136 75q19 0 19 19v535q0 8 -5 14t-13 6q-6 0 -12 -6t-6 -15v-535q0 -18 17 -18zM15 800l80 113h83l79 -113h-58l-63 82l-61 -82h-60z" />
    <glyph glyph-name="Otilde" unicode="&#xd5;" horiz-adv-x="274" 
d="M256 83q0 -50 -28.5 -70.5t-97.5 -20.5q-112 0 -112 90v555q0 49 29 71t95 22q61 0 87.5 -21.5t26.5 -71.5v-554zM136 75q19 0 19 19v535q0 8 -5 14t-13 6q-6 0 -12 -6t-6 -15v-535q0 -18 17 -18zM22 841q18 18 31.5 24.5t33.5 6.5q12 0 23 -2t37 -11q40 -10 53 -10
q14 0 20 3t18 16l13 -32q-24 -35 -59 -35q-8 0 -20.5 2.5t-27 7t-36.5 9.5t-33 5q-21 0 -39 -21z" />
    <glyph glyph-name="Odieresis" unicode="&#xd6;" horiz-adv-x="274" 
d="M25 766v111h91v-111h-91zM159 766v111h91v-111h-91zM256 83q0 -50 -28.5 -70.5t-97.5 -20.5q-112 0 -112 90v555q0 49 29 71t95 22q61 0 87.5 -21.5t26.5 -71.5v-554zM136 75q19 0 19 19v535q0 8 -5 14t-13 6q-6 0 -12 -6t-6 -15v-535q0 -18 17 -18z" />
    <glyph glyph-name="Oslash" unicode="&#xd8;" horiz-adv-x="275" 
d="M-5 -21l26 80q-3 20 -3 30v12v536q0 93 121 93q39 0 52 -4t43 -23l21 63l27 -8l-31 -94l2 -15l3 -33v-533q0 -48 -28.5 -69.5t-92.5 -21.5q-38 0 -54.5 5t-42.5 24l-15 -51zM155 371l-36 -114v-164q0 -18 17 -18q19 0 19 19v277zM118 628v-278l37 113v165q0 18 -17 18
q-5 0 -12.5 -4.5t-7.5 -13.5z" />
    <glyph glyph-name="Ugrave" unicode="&#xd9;" horiz-adv-x="274" 
d="M256 721v-637q0 -44 -32 -69t-89 -25q-55 0 -86 24t-31 68v639h101v-623q0 -21 17 -21q19 0 19 19v625h101zM3 909l85 -3l93 -105h-61z" />
    <glyph glyph-name="Uacute" unicode="&#xda;" horiz-adv-x="274" 
d="M256 721v-637q0 -44 -32 -69t-89 -25q-55 0 -86 24t-31 68v639h101v-623q0 -21 17 -21q19 0 19 19v625h101zM100 800l94 107l84 2l-116 -109h-62z" />
    <glyph glyph-name="Ucircumflex" unicode="&#xdb;" horiz-adv-x="274" 
d="M256 721v-637q0 -44 -32 -69t-89 -25q-55 0 -86 24t-31 68v639h101v-623q0 -21 17 -21q19 0 19 19v625h101zM15 800l80 113h83l79 -113h-58l-63 82l-61 -82h-60z" />
    <glyph glyph-name="Udieresis" unicode="&#xdc;" horiz-adv-x="274" 
d="M26 766v111h91v-111h-91zM160 766v111h90v-111h-90zM256 721v-637q0 -44 -32 -69t-89 -25q-55 0 -86 24t-31 68v639h101v-623q0 -21 17 -21q19 0 19 19v625h101z" />
    <glyph glyph-name="germandbls" unicode="&#xdf;" 
d="M14 0v654q0 77 106 77q103 0 103 -94v-106q0 -29 -42 -46q26 -11 35.5 -23t9.5 -37v-356q0 -69 -90 -69h-18v75q17 5 17 24v322l-2 16q-1 4 -15 6v79q11 3 14 7.5t3 17.5v97q0 19 -13 19q-16 0 -16 -20v-643h-92z" />
    <glyph glyph-name="agrave" unicode="&#xe0;" 
d="M106 415h-92v103q0 33 29 53t78 20q51 0 78 -19t27 -56v-516h-84v22q-16 -16 -29.5 -22t-30.5 -6q-68 0 -68 72v232q0 12 5 23.5t9 14.5l11 9l81 59q15 11 15 19v86q0 14 -17 14q-12 0 -12 -12v-96zM135 310q-29 -21 -29 -41v-189q0 -13 12 -13q17 0 17 12v231zM-14 734
l85 -3l93 -105h-61z" />
    <glyph glyph-name="aacute" unicode="&#xe1;" 
d="M106 415h-92v103q0 33 29 53t78 20q51 0 78 -19t27 -56v-516h-84v22q-16 -16 -29.5 -22t-30.5 -6q-68 0 -68 72v232q0 12 5 23.5t9 14.5l11 9l81 59q15 11 15 19v86q0 14 -17 14q-12 0 -12 -12v-96zM135 310q-29 -21 -29 -41v-189q0 -13 12 -13q17 0 17 12v231zM83 625
l94 107l84 2l-116 -109h-62z" />
    <glyph glyph-name="acircumflex" unicode="&#xe2;" 
d="M106 415h-92v103q0 33 29 53t78 20q51 0 78 -19t27 -56v-516h-84v22q-16 -16 -29.5 -22t-30.5 -6q-68 0 -68 72v232q0 12 5 23.5t9 14.5l11 9l81 59q15 11 15 19v86q0 14 -17 14q-12 0 -12 -12v-96zM135 310q-29 -21 -29 -41v-189q0 -13 12 -13q17 0 17 12v231zM-1 625
l80 113h83l79 -113h-58l-63 82l-61 -82h-60z" />
    <glyph glyph-name="atilde" unicode="&#xe3;" 
d="M106 415h-92v103q0 33 29 53t78 20q51 0 78 -19t27 -56v-516h-84v22q-16 -16 -29.5 -22t-30.5 -6q-68 0 -68 72v232q0 12 5 23.5t9 14.5l11 9l81 59q15 11 15 19v86q0 14 -17 14q-12 0 -12 -12v-96zM135 310q-29 -21 -29 -41v-189q0 -13 12 -13q17 0 17 12v231zM6 666
q18 18 31.5 24.5t33.5 6.5q12 0 23 -2t37 -11q40 -10 53 -10q14 0 20 3t18 16l13 -32q-24 -35 -59 -35q-8 0 -20.5 2.5t-27 7t-36.5 9.5t-33 5q-21 0 -39 -21z" />
    <glyph glyph-name="adieresis" unicode="&#xe4;" 
d="M106 415h-92v103q0 33 29 53t78 20q51 0 78 -19t27 -56v-516h-84v22q-16 -16 -29.5 -22t-30.5 -6q-68 0 -68 72v232q0 12 5 23.5t9 14.5l11 9l81 59q15 11 15 19v86q0 14 -17 14q-12 0 -12 -12v-96zM24 626v95h81v-95h-81zM138 626v95h80v-95h-80zM135 310
q-29 -21 -29 -41v-189q0 -13 12 -13q17 0 17 12v231z" />
    <glyph glyph-name="aring" unicode="&#xe5;" 
d="M106 415h-92v103q0 33 29 53t78 20q51 0 78 -19t27 -56v-516h-84v22q-16 -16 -29.5 -22t-30.5 -6q-68 0 -68 72v232q0 12 5 23.5t9 14.5l11 9l81 59q15 11 15 19v86q0 14 -17 14q-12 0 -12 -12v-96zM62 677q0 27 18 46t44 19q27 0 45 -19t18 -46q0 -26 -18 -44t-45 -18
q-26 0 -44 18t-18 44zM135 310q-29 -21 -29 -41v-189q0 -13 12 -13q17 0 17 12v231zM124 708q-16 0 -25 -13q-5 -7 -5 -18q0 -12 9 -20t21 -8t21 8t9 21t-8.5 21.5t-21.5 8.5z" />
    <glyph glyph-name="ae" unicode="&#xe6;" horiz-adv-x="355" 
d="M143 21q-20 -18 -32.5 -24t-31.5 -6q-33 0 -49 18t-16 57v229q0 32 16 43l21 14l69 48q15 9 15 25v81q0 13 -14 13q-15 0 -15 -12v-101h-92v106q0 76 105 76q21 0 30.5 -2.5t29.5 -14.5q18 10 30.5 14t31.5 4q42 0 70 -21t28 -54v-233l-120 -2v-208q0 -16 12 -16
q18 0 18 16v168l92 -1v-171q0 -37 -24.5 -57.5t-68.5 -20.5q-10 0 -20.5 2t-44.5 9h-41zM135 75v239q-17 -10 -23 -18t-6 -21v-200q0 -16 16 -16q13 0 13 16zM219 506v-154h30v156q0 12 -14 12q-16 0 -16 -14z" />
    <glyph glyph-name="ccedilla" unicode="&#xe7;" 
d="M226 243v-174q0 -75 -111 -75q-101 0 -101 73v449q0 32 29.5 52t76.5 20q48 0 77 -20t29 -53v-134h-91v130q0 13 -16 13q-13 0 -13 -14v-436q0 -16 14 -16q15 0 15 14v171h91zM86 -187v30l37 56h-37v71h64v-81z" />
    <glyph glyph-name="egrave" unicode="&#xe8;" 
d="M226 238v-176q0 -72 -109 -72q-48 0 -75.5 19.5t-27.5 54.5v453q0 35 28 54t81 19q103 0 103 -69v-239h-120v-213q0 -5 4 -9t11 -4q14 0 14 13v169h91zM106 507v-149h29v150q0 12 -14 12q-15 0 -15 -13zM-14 734l85 -3l93 -105h-61z" />
    <glyph glyph-name="eacute" unicode="&#xe9;" 
d="M226 238v-176q0 -72 -109 -72q-48 0 -75.5 19.5t-27.5 54.5v453q0 35 28 54t81 19q103 0 103 -69v-239h-120v-213q0 -5 4 -9t11 -4q14 0 14 13v169h91zM106 507v-149h29v150q0 12 -14 12q-15 0 -15 -13zM83 625l94 107l84 2l-116 -109h-62z" />
    <glyph glyph-name="ecircumflex" unicode="&#xea;" 
d="M226 238v-176q0 -72 -109 -72q-48 0 -75.5 19.5t-27.5 54.5v453q0 35 28 54t81 19q103 0 103 -69v-239h-120v-213q0 -5 4 -9t11 -4q14 0 14 13v169h91zM106 507v-149h29v150q0 12 -14 12q-15 0 -15 -13zM-1 625l80 113h83l79 -113h-58l-63 82l-61 -82h-60z" />
    <glyph glyph-name="edieresis" unicode="&#xeb;" 
d="M226 238v-176q0 -72 -109 -72q-48 0 -75.5 19.5t-27.5 54.5v453q0 35 28 54t81 19q103 0 103 -69v-239h-120v-213q0 -5 4 -9t11 -4q14 0 14 13v169h91zM106 507v-149h29v150q0 12 -14 12q-15 0 -15 -13zM23 626v95h81v-95h-81zM138 626v95h80v-95h-80z" />
    <glyph glyph-name="igrave" unicode="&#xec;" horiz-adv-x="120" 
d="M14 0v581h92v-581h-92zM-74 734l85 -3l93 -105h-61z" />
    <glyph glyph-name="iacute" unicode="&#xed;" horiz-adv-x="120" 
d="M14 0v581h92v-581h-92zM23 625l94 107l84 2l-116 -109h-62z" />
    <glyph glyph-name="icircumflex" unicode="&#xee;" horiz-adv-x="120" 
d="M14 0v581h92v-581h-92zM-61 625l80 113h83l79 -113h-58l-63 82l-61 -82h-60z" />
    <glyph glyph-name="idieresis" unicode="&#xef;" horiz-adv-x="120" 
d="M14 0v581h92v-581h-92zM-37 626v95h81v-95h-81zM78 626v95h80v-95h-80z" />
    <glyph glyph-name="ntilde" unicode="&#xf1;" 
d="M14 0v581h84v-24q17 19 29.5 25.5t30.5 6.5q30 0 49 -19t19 -49v-521h-91v501q0 15 -14 15q-15 0 -15 -14v-502h-92zM6 666q18 18 31.5 24.5t33.5 6.5q12 0 23 -2t37 -11q40 -10 53 -10q14 0 20 3t18 16l13 -32q-24 -35 -59 -35q-8 0 -20.5 2.5t-27 7t-36.5 9.5t-33 5
q-21 0 -39 -21z" />
    <glyph glyph-name="ograve" unicode="&#xf2;" 
d="M226 68q0 -23 -15 -44t-32 -24.5t-30.5 -6t-32.5 -2.5l-10 -1q-42 0 -67 21t-25 57v443q0 78 109 78q47 0 75 -20t28 -52v-449zM120 59q15 0 15 12v436q0 14 -14 14q-15 0 -15 -16v-434q0 -12 14 -12zM-14 734l85 -3l93 -105h-61z" />
    <glyph glyph-name="oacute" unicode="&#xf3;" 
d="M226 68q0 -23 -15 -44t-32 -24.5t-30.5 -6t-32.5 -2.5l-10 -1q-42 0 -67 21t-25 57v443q0 78 109 78q47 0 75 -20t28 -52v-449zM120 59q15 0 15 12v436q0 14 -14 14q-15 0 -15 -16v-434q0 -12 14 -12zM83 625l94 107l84 2l-116 -109h-62z" />
    <glyph glyph-name="ocircumflex" unicode="&#xf4;" 
d="M226 68q0 -23 -15 -44t-32 -24.5t-30.5 -6t-32.5 -2.5l-10 -1q-42 0 -67 21t-25 57v443q0 78 109 78q47 0 75 -20t28 -52v-449zM120 59q15 0 15 12v436q0 14 -14 14q-15 0 -15 -16v-434q0 -12 14 -12zM-1 625l80 113h83l79 -113h-58l-63 82l-61 -82h-60z" />
    <glyph glyph-name="otilde" unicode="&#xf5;" 
d="M226 68q0 -23 -15 -44t-32 -24.5t-30.5 -6t-32.5 -2.5l-10 -1q-42 0 -67 21t-25 57v443q0 78 109 78q47 0 75 -20t28 -52v-449zM120 59q15 0 15 12v436q0 14 -14 14q-15 0 -15 -16v-434q0 -12 14 -12zM6 666q18 18 31.5 24.5t33.5 6.5q12 0 23 -2t37 -11q40 -10 53 -10
q14 0 20 3t18 16l13 -32q-24 -35 -59 -35q-8 0 -20.5 2.5t-27 7t-36.5 9.5t-33 5q-21 0 -39 -21z" />
    <glyph glyph-name="odieresis" unicode="&#xf6;" 
d="M226 68q0 -23 -15 -44t-32 -24.5t-30.5 -6t-32.5 -2.5l-10 -1q-42 0 -67 21t-25 57v443q0 78 109 78q47 0 75 -20t28 -52v-449zM24 626v95h81v-95h-81zM138 626v95h80v-95h-80zM120 59q15 0 15 12v436q0 14 -14 14q-15 0 -15 -16v-434q0 -12 14 -12z" />
    <glyph glyph-name="divide" unicode="&#xf7;" horiz-adv-x="594" 
d="M234 141q19 17 41 17q24 0 40 -16t16 -41q0 -24 -17 -40q-15 -17 -39 -17t-40.5 17.5t-16.5 39.5q0 24 16 40zM506 270v-68h-463v68h463zM234 410q19 17 41 17q24 0 39 -17q17 -17 17 -40q0 -24 -17 -40q-15 -17 -39 -17t-40.5 16.5t-16.5 40.5t16 40z" />
    <glyph glyph-name="oslash" unicode="&#xf8;" horiz-adv-x="240" 
d="M-36 0l51 105v406q0 78 103 78q38 0 60 -10t37 -35l27 43l27 -11l-43 -99v-409q0 -79 -116 -79q-36 0 -55.5 11t-33.5 40l-26 -48zM134 71v207l-29 -50v-157q0 -12 14 -12q15 0 15 12zM105 505v-198l29 52v148q0 14 -14 14q-15 0 -15 -16z" />
    <glyph glyph-name="ugrave" unicode="&#xf9;" 
d="M142 25q-29 -34 -60 -34q-68 0 -68 78v512h92v-501q0 -15 13 -15q16 0 16 14v502h91v-581h-84v25zM-14 734l85 -3l93 -105h-61z" />
    <glyph glyph-name="uacute" unicode="&#xfa;" 
d="M142 25q-29 -34 -60 -34q-68 0 -68 78v512h92v-501q0 -15 13 -15q16 0 16 14v502h91v-581h-84v25zM83 625l94 107l84 2l-116 -109h-62z" />
    <glyph glyph-name="ucircumflex" unicode="&#xfb;" 
d="M142 25q-29 -34 -60 -34q-68 0 -68 78v512h92v-501q0 -15 13 -15q16 0 16 14v502h91v-581h-84v25zM-1 625l80 113h83l79 -113h-58l-63 82l-61 -82h-60z" />
    <glyph glyph-name="udieresis" unicode="&#xfc;" 
d="M142 25q-29 -34 -60 -34q-68 0 -68 78v512h92v-501q0 -15 13 -15q16 0 16 14v502h91v-581h-84v25zM23 626v95h81v-95h-81zM137 626v95h80v-95h-80z" />
    <glyph glyph-name="ydieresis" unicode="&#xff;" horiz-adv-x="238" 
d="M0 576h89l20 -325l3 -177h8l5 177l18 325h92l-40 -629q0 -11 -2.5 -19.5t-7.5 -16.5q-19 -27 -83 -27h-83v68h56q33 0 33 23v25h-32q-16 0 -24.5 4t-12 11t-3.5 26zM21 626v95h81v-95h-81zM136 626v95h80v-95h-80z" />
    <glyph glyph-name="notequal" unicode="&#x112;" horiz-adv-x="594" 
d="M488 410l-75 -74h91v-64h-149l-73 -72h222v-64h-281l-118 -118l-43 44l74 74h-91v64h150l73 72h-223v64h281l118 118z" />
    <glyph glyph-name="infinity" unicode="&#x113;" horiz-adv-x="771" 
d="M430 144q-36 31 -64 94q-33 -62 -71.5 -93t-85.5 -31q-66 0 -111 52.5t-45 131.5q0 83 41 134.5t105 51.5q47 0 82.5 -29.5t65.5 -94.5q31 62 69.5 93t87.5 31q63 0 109 -53t46 -131q0 -83 -40.5 -134.5t-104.5 -51.5q-46 0 -84 30zM257 205q30 30 73 122
q-26 46 -59 69.5t-76 23.5q-51 0 -84 -35t-33 -90q0 -54 29.5 -88.5t76.5 -34.5q40 0 73 33zM453 390q-33 -36 -70 -119q23 -45 58 -70q35 -23 77 -23q52 0 84.5 35t32.5 90q0 56 -30 89.5t-80 33.5q-37 0 -72 -36z" />
    <glyph glyph-name="lessequal" unicode="&#x114;" horiz-adv-x="594" 
d="M506 86v-68h-463v68h463zM506 388l-344 -108l344 -107v-70l-462 145v65l462 145v-70z" />
    <glyph glyph-name="greaterequal" unicode="&#x115;" horiz-adv-x="594" 
d="M506 86v-68h-463v68h463zM506 313v-65l-463 -145v70l344 107l-344 108v70z" />
    <glyph glyph-name="partialdiff" unicode="&#x116;" horiz-adv-x="534" 
d="M313 357q28 -21 45 -70q4 14 6.5 28t2.5 31l3 89q0 85 -15.5 126t-47.5 41q-18 0 -50 -35t-56 -35q-16 0 -25.5 7.5t-11.5 24.5q0 29 29 50q32 21 73 21q77 0 124 -72q22 -36 34 -85t12 -111q0 -163 -64.5 -271.5t-157.5 -108.5q-68 0 -110 51t-42 137q0 82 53 143.5
t125 61.5q44 0 73 -23zM319 317q-21 32 -63 32q-52 0 -86 -60t-34 -161q0 -57 21.5 -88t62.5 -31q53 0 87 62t34 153q0 58 -22 93z" />
    <glyph glyph-name="summation" unicode="&#x117;" horiz-adv-x="771" 
d="M592 729q17 -13 26 -86l15 -129h-44q-32 105 -85 144t-169 39h-132l315 -431l-344 -394h187q122 0 172.5 31.5t82.5 116.5h45l-30 -130l-2 -7q-23 -99 -111 -99h-482l389 446l-375 514h460q65 0 82 -15z" />
    <glyph glyph-name="product" unicode="&#x118;" horiz-adv-x="890" 
d="M30 -176h88v880h-88v40h767v-40h-88v-880h88v-40h-264v40h84v880h-407v-880h84v-40h-264v40z" />
    <glyph glyph-name="pi" unicode="&#x119;" horiz-adv-x="594" 
d="M414 372l-10 1l-1 -24l-3 -150v-40q0 -84 8.5 -105t30.5 -21q28 0 41 29q17 31 17 89h25v-5q0 -80 -26 -118t-80 -38q-56 0 -80 39q-23 41 -23 165l1 78l3 104l-50 1l-77 2q0 -234 -23 -311.5t-80 -77.5q-35 0 -52.5 29t-17.5 86v19h24q0 -27 9.5 -39.5t27.5 -12.5
q42 0 58 62q9 32 14.5 95.5t5.5 149.5h-22q-38 0 -59.5 -13.5t-27.5 -39.5h-23q0 34 10 57.5t28 38.5q35 27 121 27l102 -3l152 -3q34 0 49.5 7t16.5 21l23 1q0 -53 -23.5 -76.5t-74.5 -23.5h-14z" />
    <glyph glyph-name="integral" unicode="&#x11a;" horiz-adv-x="296" 
d="M200 726q38 31 83 31q36 0 58.5 -18.5t22.5 -48.5q0 -20 -13 -34t-36 -14q-29 0 -44 32t-29 32q-57 0 -57 -310l-3 -98q0 -63 -4.5 -120t-11.5 -109q-12 -90 -31 -133q-24 -55 -62.5 -86t-81.5 -31q-35 0 -58 18.5t-23 48.5q0 22 12.5 34.5t36.5 12.5q29 0 44 -31t30 -32
q57 0 57 324l2 84q0 60 4 116t11 111q12 88 32 135q24 55 61 86z" />
    <glyph glyph-name="Omega" unicode="&#x11b;" horiz-adv-x="830" 
d="M470 90h123q48 0 67 17q21 21 21 69h23v-176h-272v180q77 15 122.5 76.5t45.5 151.5q0 106 -59 168.5t-157 62.5t-157 -62.5t-59 -168.5q0 -90 44.5 -151t123.5 -77v-180h-272v176h23q0 -48 19 -67t69 -19h123v59q-118 21 -183 89t-65 170q0 121 92.5 194t241.5 73
t241.5 -73.5t92.5 -193.5q0 -100 -64 -168t-184 -91v-59z" />
    <glyph glyph-name="radical" unicode="&#x11c;" horiz-adv-x="594" 
d="M594 811v-47h-57l-290 -784h-32l-156 431l-61 -22l-12 39l138 48l125 -346l252 681h93z" />
    <glyph glyph-name="approxequal" unicode="&#x11d;" horiz-adv-x="594" 
d="M102 153q-16 -7 -38.5 -20.5t-48.5 -32.5v77q49 31 87 44.5t74 13.5q44 0 115 -24t99 -24t61.5 15t82.5 52v-78q-42 -28 -76.5 -41.5t-72.5 -13.5q-32 0 -104 23.5t-116 23.5q-28 0 -63 -15zM104 273q-31 -13 -89 -54v77q23 14 43.5 25t40.5 18q40 14 76 14
q42 0 114.5 -23.5t100.5 -23.5q27 0 61 14q32 15 83 52v-77q-18 -12 -41 -24t-38 -18q-37 -13 -70 -13t-104.5 23.5t-110.5 23.5q-35 0 -66 -14z" />
    <glyph glyph-name="Gbreve" unicode="&#x11e;" horiz-adv-x="662" 
d="M319 672l276 -672h-574l276 672h22zM279 504l-187 -459h373z" />
    <glyph glyph-name="gbreve" unicode="&#x11f;" horiz-adv-x="534" 
d="M3 289l244 518l244 -518l-244 -522zM435 289l-188 399l-188 -399l188 -403z" />
    <glyph glyph-name="apple" unicode="&#x120;" horiz-adv-x="854" 
d="M408 594l-1 7v11q0 61 46 112t116 64v-12l1 -18q0 -64 -50.5 -114.5t-99.5 -50.5h-4zM650 264q31 -44 85 -67q-56 -121 -101 -167.5t-99 -46.5q-25 0 -64 16t-60 16q-23 0 -64 -16t-62 -16q-30 0 -63 21q-13 10 -30.5 27.5t-32.5 37.5q-47 65 -75.5 143t-28.5 148
q0 107 61.5 174.5t157.5 67.5q16 0 35.5 -4t40.5 -13q43 -17 60 -17q18 0 59 17q45 17 75 17q55 0 97.5 -19.5t77.5 -60.5q-49 -31 -73.5 -70.5t-24.5 -89.5q0 -54 29 -98z" />
    <glyph glyph-name="dotlessi" unicode="&#x131;" horiz-adv-x="120" 
d="M14 0v581h92v-581h-92z" />
    <glyph glyph-name="OE" unicode="&#x152;" horiz-adv-x="355" 
d="M198 0q-6 -1 -37 -4.5t-36 -3.5q-51 0 -79 24t-28 69v553q0 42 28.5 67.5t77.5 25.5q25 0 71 -10h150v-81h-89v-222h83v-80h-83v-258h89v-80h-147zM136 74q19 0 19 19v536q0 10 -5.5 15.5t-11.5 5.5q-19 0 -19 -20v-537q0 -19 17 -19z" />
    <glyph glyph-name="oe" unicode="&#x153;" horiz-adv-x="355" 
d="M177 5q-38 -14 -69 -14q-44 0 -69 20t-25 55v446q0 32 29 54t72 22q18 0 30 -3t33 -14q16 11 27 14t36 3q46 0 73 -20t27 -54v-231h-120v-211q0 -5 3 -10t8 -5q17 0 17 17v163h92v-171q0 -75 -101 -75q-25 0 -35.5 2t-27.5 12zM121 54q14 0 14 17v432q0 14 -12 14
q-6 0 -11.5 -5t-5.5 -10v-428q0 -20 15 -20zM221 503v-151h28v151q0 15 -17 15q-11 0 -11 -15z" />
    <glyph glyph-name="Scaron" unicode="&#x160;" horiz-adv-x="274" 
d="M155 465v161q0 20 -16 20q-20 0 -20 -20v-108q0 -30 5 -42q1 -3 7 -10t11 -13l77 -91q13 -15 15 -18q6 -8 10 -15.5t8 -26t4 -35.5v-178q0 -47 -33 -73t-91 -26q-114 0 -114 96v209h101v-199q0 -19 17 -19q8 0 13.5 5.5t5.5 13.5v161q0 18 -3 25t-18 25l-76 94l-23 31
q-17 24 -17 65v142q0 32 15 55t42 30q22 8 63 8h9q109 0 109 -96v-171h-101zM16 913l60 -1l61 -84l63 85h58l-80 -114h-82z" />
    <glyph glyph-name="scaron" unicode="&#x161;" 
d="M135 397v109q0 15 -15 15q-14 0 -14 -14v-98q0 -15 3 -21l12 -16l80 -92l17 -22q8 -13 8 -50v-138q0 -38 -29 -59t-82 -21q-47 0 -74 21t-27 58v154h92v-148q0 -14 14 -14q15 0 15 13v125q0 10 -7 24l-16 16l-66 79l-17 19q-15 20 -15 57v123q0 35 28 54t78 19
q106 0 106 -83v-110h-91zM0 738l60 -1l61 -84l63 85h58l-80 -114h-82z" />
    <glyph glyph-name="Ydieresis" unicode="&#x178;" horiz-adv-x="270" 
d="M-8 721h103l36 -247l3 -119h9l4 119l36 247h95l-92 -476v-245h-101v245zM37 801v95h81v-95h-81zM152 801v95h80v-95h-80z" />
    <glyph glyph-name="Zcaron" unicode="&#x17d;" horiz-adv-x="229" 
d="M8 0v88l115 552h-115v81h214v-87l-112 -554h112v-80h-214zM-6 913l60 -1l61 -84l63 85h58l-80 -114h-82z" />
    <glyph glyph-name="zcaron" unicode="&#x17e;" horiz-adv-x="177" 
d="M8 511v70h162v-60l-67 -447h67v-74h-162v69l71 442h-71zM-32 738l60 -1l61 -84l63 85h58l-80 -114h-82z" />
    <glyph glyph-name="florin" unicode="&#x192;" horiz-adv-x="231" 
d="M-44 -116l9 62l18 1q21 0 26 28l73 533h-17l10 73h17l9 62q3 27 9 40q14 38 67 38h66l-9 -63l-18 -1q-23 0 -26 -28l-6 -48h39l-10 -73h-39l-76 -546q-6 -44 -23 -61t-53 -17h-66z" />
    <glyph glyph-name="circumflex" unicode="&#x2c6;" horiz-adv-x="245" 
d="M1 625l80 113h83l79 -113h-58l-63 82l-61 -82h-60z" />
    <glyph glyph-name="caron" unicode="&#x2c7;" horiz-adv-x="244" 
d="M1 738l60 -1l61 -84l63 85h58l-80 -114h-82z" />
    <glyph glyph-name="breve" unicode="&#x2d8;" horiz-adv-x="200" 
d="M1 734h36q43 -69 64 -69q10 0 26 17.5t36 51.5h36q-17 -63 -36 -86.5t-54 -23.5q-51 0 -69.5 18.5t-38.5 91.5z" />
    <glyph glyph-name="dotaccent" unicode="&#x2d9;" horiz-adv-x="142" 
d="M0 882h82l60 -117h-64z" />
    <glyph glyph-name="ring" unicode="&#x2da;" horiz-adv-x="105" 
d="M-10 677q0 27 18 46t45 19t45 -19t18 -46q0 -26 -18 -44t-45 -18q-26 0 -44.5 17.5t-18.5 44.5zM53 708q-16 0 -25 -13q-5 -7 -5 -18q0 -12 9 -20t21 -8t20.5 8.5t8.5 20.5t-8 21t-21 9z" />
    <glyph glyph-name="ogonek" unicode="&#x2db;" horiz-adv-x="360" 
d="M0 0v360l360 -360h-360z" />
    <glyph glyph-name="tilde" unicode="&#x2dc;" horiz-adv-x="231" 
d="M1 666q18 18 31.5 24.5t33.5 6.5q12 0 23 -2t37 -11q40 -10 53 -10q14 0 20 3t18 16l13 -32q-24 -35 -59 -35q-8 0 -20.5 2.5t-27 7t-36.5 9.5t-33 5q-21 0 -39 -21z" />
    <glyph glyph-name="endash" unicode="&#x2013;" horiz-adv-x="281" 
d="M17 305v63h247v-63h-247z" />
    <glyph glyph-name="emdash" unicode="&#x2014;" horiz-adv-x="996" 
d="M30 311v95h936v-95h-936z" />
    <glyph glyph-name="quoteleft" unicode="&#x2018;" horiz-adv-x="172" 
d="M22 541l40 180h88l-42 -180h-86z" />
    <glyph glyph-name="quoteright" unicode="&#x2019;" horiz-adv-x="172" 
d="M22 541l42 180h86l-40 -180h-88z" />
    <glyph glyph-name="quotesinglbase" unicode="&#x201a;" horiz-adv-x="141" 
d="M-14 -78l45 186h88l-45 -186h-88z" />
    <glyph glyph-name="quotedblleft" unicode="&#x201c;" horiz-adv-x="302" 
d="M147 535l44 186h89l-45 -186h-88zM22 535l45 186h88l-46 -186h-87z" />
    <glyph glyph-name="quotedblright" unicode="&#x201d;" horiz-adv-x="302" 
d="M22 535l45 186h88l-46 -186h-87zM147 535l45 186h88l-45 -186h-88z" />
    <glyph glyph-name="quotedblbase" unicode="&#x201e;" horiz-adv-x="282" 
d="M2 -78l46 186h87l-44 -186h-89zM128 -78l45 186h88l-46 -186h-87z" />
    <glyph glyph-name="dagger" unicode="&#x2020;" horiz-adv-x="363" 
d="M22 446v91h110v184h99v-184h111v-91h-113v-627h-97v627h-110z" />
    <glyph glyph-name="daggerdbl" unicode="&#x2021;" horiz-adv-x="343" 
d="M10 186v88h111v176h-109v87h109v184h100v-184l112 -1v-86h-114v-176h111v-88h-111v-361h-99v361h-110z" />
    <glyph glyph-name="bullet" unicode="&#x2022;" horiz-adv-x="163" 
d="M36 274v108h92v-108h-92z" />
    <glyph glyph-name="ellipsis" unicode="&#x2026;" horiz-adv-x="996" 
d="M95 61q0 30 21 51t51 21t51 -21t21 -51t-21 -51t-51 -21t-51 21t-21 51zM428 61q0 30 21 51t51 21t51 -21t21 -51t-21 -51t-51 -21t-51 21t-21 51zM761 61q0 30 21 51t51 21t51 -21t21 -51t-21 -51t-51 -21t-51 21t-21 51z" />
    <glyph glyph-name="perthousand" unicode="&#x2030;" horiz-adv-x="659" 
d="M155 0l116 721h50l-112 -721h-54zM181 348q0 -66 -79 -66q-35 0 -54 17t-19 49v314q0 66 77 66q75 0 75 -64v-316zM449 56q0 -66 -79 -66q-35 0 -54 17t-19 49v314q0 66 78 66q74 0 74 -64v-316zM630 56q0 -66 -79 -66q-34 0 -53 17t-19 49v314q0 66 78 66q73 0 73 -64
v-316zM374 44q13 0 13 12v314q0 14 -13 14q-15 0 -15 -15v-313q0 -12 15 -12zM105 336q14 0 14 12v314q0 14 -13 14q-15 0 -15 -15v-313q0 -12 14 -12zM555 44q14 0 14 12v314q0 14 -13 14q-15 0 -15 -15v-313q0 -12 14 -12z" />
    <glyph glyph-name="guilsinglleft" unicode="&#x2039;" horiz-adv-x="253" 
d="M22 294l108 217h100l-111 -215l112 -217h-98z" />
    <glyph glyph-name="guilsinglright" unicode="&#x203a;" horiz-adv-x="253" 
d="M22 511h99l110 -215l-108 -217h-100l111 216z" />
    <glyph glyph-name="trademark" unicode="&#x2122;" horiz-adv-x="782" 
d="M43 666v54h218v-54h-80v-306h-60v306h-78zM249 360l67 367h39l92 -217q17 -38 17 -68q0 28 17 68l93 217h39l67 -367h-60l-35 206l-1 11l-1 10v38l-10 -37l-4 -15l-2 -5l-90 -214h-25l-90 214l-2 5l-5 15l-10 37v-18.5t1 -19.5l-1 -10l-2 -11l-35 -206h-59z" />
    <glyph glyph-name="fraction" unicode="&#x2215;" horiz-adv-x="55" 
d="M-57 0l102 721h67l-102 -721h-67z" />
    <glyph glyph-name="fi" unicode="&#xf001;" horiz-adv-x="281" 
d="M26 276l60 60l-59 60l54 53l60 -60l61 61l53 -53l-60 -61l60 -61l-53 -53l-61 61l-61 -61z" />
    <glyph glyph-name="fl" unicode="&#xf002;" horiz-adv-x="184" 
d="M8 482v82q22 11 31 22t18.5 36t13.5 45t4 54h87v-721h-101v482h-53z" />
    </font>
</defs>
</svg>
