<?xml version="1.0" standalone="no"?>
<!DOCTYPE svg PUBLIC "-//W3C//DTD SVG 1.1//EN" "http://www.w3.org/Graphics/SVG/1.1/DTD/svg11.dtd" >
<svg xmlns="http://www.w3.org/2000/svg" xmlns:xlink="http://www.w3.org/1999/xlink" version="1.1">
<metadata>
Created by FontForge 20170731 at Mon Oct 20 18:14:01 1930
 By Aleksey,,,
(c) 1996 SoftMaker Software GmbH
</metadata>
<defs>
<font id="Plakette-Serial-Bold" horiz-adv-x="288" >
  <font-face 
    font-family="Plakette-Serial"
    font-weight="700"
    font-stretch="normal"
    units-per-em="1000"
    panose-1="0 0 0 0 0 0 0 0 0 0"
    ascent="800"
    descent="-200"
    x-height="576"
    cap-height="721"
    bbox="-90 -233 966 917"
    underline-thickness="50"
    underline-position="-175"
    unicode-range="U+0020-F002"
  />
<missing-glyph horiz-adv-x="500" 
d="M31 0v874h438v-874h-438zM438 31v812h-376v-812h376z" />
    <glyph glyph-name=".notdef" horiz-adv-x="500" 
d="M31 0v874h438v-874h-438zM438 31v812h-376v-812h376z" />
    <glyph glyph-name=".null" horiz-adv-x="0" 
 />
    <glyph glyph-name="nonmarkingreturn" horiz-adv-x="290" 
 />
    <glyph glyph-name="space" unicode=" " horiz-adv-x="290" 
 />
    <glyph glyph-name="exclam" unicode="!" horiz-adv-x="186" 
d="M36 0v112h114v-112h-114zM42 721h102l-2 -547h-98z" />
    <glyph glyph-name="quotedbl" unicode="&#x22;" horiz-adv-x="323" 
d="M22 526l42 195h101l-42 -195h-101zM158 526l42 195h102l-43 -195h-101z" />
    <glyph glyph-name="numbersign" unicode="#" horiz-adv-x="631" 
d="M38 214l13 60h115l37 172h-116l13 60h115l44 207h60l-44 -207h96l44 207h60l-44 -207h115l-12 -60h-115l-37 -172h115l-13 -60h-115l-44 -207h-60l44 207h-96l-44 -207h-60l44 207h-115zM226 274h96l37 172h-97z" />
    <glyph glyph-name="dollar" unicode="$" horiz-adv-x="338" 
d="M148 0h-27q-41 0 -70 32.5t-29 78.5v179h128v-183q0 -21 16 -21q21 0 21 23v149q0 20 -3 25.5t-20 21.5l-94 84q-48 45 -48 95v134q0 49 27 76t77 27h25v105h37v-105h27q43 0 72.5 -30.5t29.5 -77.5v-139h-130v142q0 22 -15 22q-22 0 -22 -22v-98q0 -27 4 -36t22 -25
l90 -78q12 -10 18 -16t10 -12q23 -28 23 -71v-166q0 -12 -2.5 -22t-10.5 -25q-15 -29 -39.5 -48t-48.5 -19h-30v-116h-38v116z" />
    <glyph glyph-name="percent" unicode="%" horiz-adv-x="536" 
d="M177 0l118 721h59l-109 -721h-68zM204 357q0 -20 -11.5 -38.5t-29.5 -24.5q-7 -2 -24.5 -4.5t-26.5 -3.5h-8q-82 0 -82 71v300q0 71 89 71q93 0 93 -70v-301zM515 61q0 -20 -12 -39t-29 -24q-4 -1 -20.5 -4t-30.5 -3l-9 -1q-82 0 -82 71v300q0 28 13 44q11 16 28 21t58 5
q84 0 84 -68v-302zM114 344q14 0 14 10v305q0 12 -14 12q-16 0 -16 -13v-304q0 -10 16 -10zM424 48q14 0 14 10v305q0 12 -13 12q-16 0 -16 -13v-304q0 -10 15 -10z" />
    <glyph glyph-name="ampersand" unicode="&#x26;" horiz-adv-x="394" 
d="M271 46q-15 -33 -32.5 -41t-76.5 -8q-89 0 -114.5 17t-25.5 78v173q0 36 15 61t60 65l-12 27l-17 39l-9 45v84q0 24 15 51q9 20 18 20l109 13l29 2q57 0 81 -19t24 -65v-83q0 -36 -4.5 -48t-29.5 -40l-43 -47l18 -34l29 50h67v-125l-42 -70l41 -61v-130h-76zM196 457
q7 0 12 7t5 18v102q0 22 -15 22q-16 0 -16 -22v-105q0 -22 14 -22zM148 279v-186l13 -4l52 102l-50 92l-7 13q-8 0 -8 -17z" />
    <glyph glyph-name="quotesingle" unicode="'" horiz-adv-x="194" 
d="M22 526l44 195h106l-43 -195h-107z" />
    <glyph glyph-name="parenleft" unicode="(" horiz-adv-x="186" 
d="M186 0h-42q-48 0 -78 27t-30 71v524q0 17 3 29t13 26q17 28 33 36t59 8h42v-81q-23 0 -29.5 -6.5t-6.5 -29.5v-473l2 -32q8 -10 34 -10v-89z" />
    <glyph glyph-name="parenright" unicode=")" horiz-adv-x="186" 
d="M1 0v80q23 0 29 6t6 31v473v18q0 10 -2 14q-8 10 -33 10v89h41q48 0 78 -27t30 -71v-524q0 -29 -15 -55q-18 -30 -33 -37t-60 -7h-41z" />
    <glyph glyph-name="asterisk" unicode="*" horiz-adv-x="308" 
d="M22 629l32 57l67 -44v79h66v-78l63 46l35 -60l-69 -42l70 -28l-31 -51l-68 31v-76l-66 -4v82l-68 -39l-30 56l61 32z" />
    <glyph glyph-name="plus" unicode="+" horiz-adv-x="337" 
d="M19 291v94h103v103h93v-103h103v-93h-104v-104h-93v103h-102z" />
    <glyph glyph-name="comma" unicode="," horiz-adv-x="158" 
d="M-14 -80l43 195h107l-43 -195h-107z" />
    <glyph glyph-name="hyphen" unicode="-" horiz-adv-x="261" 
d="M22 261v102h217v-102h-217z" />
    <glyph glyph-name="period" unicode="." horiz-adv-x="158" 
d="M22 0v115h114v-115h-114z" />
    <glyph glyph-name="slash" unicode="/" horiz-adv-x="258" 
d="M22 0l117 721h98l-117 -721h-98z" />
    <glyph glyph-name="zero" unicode="0" horiz-adv-x="337" 
d="M316 101q0 -53 -40 -81t-115 -28q-139 0 -139 109v521q0 35 17 61.5t45 37.5t82 11q72 0 111 -27t39 -78v-526zM169 76q6 0 12 8t6 19v512q0 24 -15 24q-22 0 -22 -22v-514q0 -27 19 -27z" />
    <glyph glyph-name="one" unicode="1" horiz-adv-x="337" 
d="M50 469v97q21 12 31.5 23t20.5 32.5t14.5 43.5t4.5 56h116v-721h-129v469h-58z" />
    <glyph glyph-name="two" unicode="2" horiz-adv-x="337" 
d="M21 0v91l155 367q11 26 11 56v103q0 10 -6 17t-15 7q-7 0 -12 -7t-5 -17v-140h-128v142q0 62 34.5 87.5t117.5 25.5q68 0 105.5 -29t37.5 -82v-101q0 -28 -14 -67l-148 -361h163v-92h-296z" />
    <glyph glyph-name="three" unicode="3" horiz-adv-x="337" 
d="M249 383q12 -6 19 -9t11 -6q15 -10 26 -31t11 -40v-198q0 -109 -156 -109q-73 0 -105.5 27t-32.5 88v186h128v-189q0 -10 5 -18t13 -8q7 0 13 8t6 19v196q0 29 -4.5 34.5t-26.5 5.5h-35v88h35q19 0 25 10t6 40v142q0 27 -15 27q-9 0 -15.5 -7.5t-6.5 -17.5v-143h-128v141
q0 59 34.5 86t111.5 27q71 0 109.5 -28t38.5 -80v-152q0 -12 -3 -23t-8 -24q-8 -15 -20 -24t-36 -18z" />
    <glyph glyph-name="four" unicode="4" horiz-adv-x="336" 
d="M6 110v72l95 539h190v-536h20v-76h-21v-109h-125v110h-159zM177 632l-65 -448h53v261l21 187h-9z" />
    <glyph glyph-name="five" unicode="5" horiz-adv-x="337" 
d="M150 464q18 18 31 24t34 6q43 0 72 -28t29 -72v-293q0 -38 -13.5 -61t-51 -38t-86.5 -15q-143 0 -143 112v186h128v-191q0 -8 4.5 -18t14.5 -10q6 0 12 9t6 21v261q0 8 -4 18.5t-13 10.5q-8 0 -13.5 -6.5t-5.5 -16.5v-21h-129v379h294v-103h-166v-154z" />
    <glyph glyph-name="six" unicode="6" horiz-adv-x="337" 
d="M150 395q23 17 36.5 23t32.5 6q41 0 69 -27t28 -68v-226q0 -115 -156 -115q-138 0 -138 114v521q0 44 30 70q21 20 47 28t74 8q74 0 108.5 -27.5t34.5 -84.5v-141h-129v139q0 25 -15 25q-9 0 -15.5 -7.5t-6.5 -17.5v-220zM168 72q19 0 19 26v208q0 24 -18 24
q-19 0 -19 -24v-208q0 -10 5 -18t13 -8z" />
    <glyph glyph-name="seven" unicode="7" horiz-adv-x="337" 
d="M19 477v244h291v-97l-106 -624h-127l110 627h-51v-150h-117z" />
    <glyph glyph-name="eight" unicode="8" horiz-adv-x="337" 
d="M245 376q23 -10 37 -19.5t24 -28.5t10 -42v-184q0 -113 -150 -113q-144 0 -144 115v174q0 26 9 47q13 31 57 49q-38 15 -52 34.5t-14 58.5v158q0 107 149 107q145 0 145 -110v-154q0 -15 -3.5 -26.5t-8.5 -22.5q-9 -16 -20.5 -25t-38.5 -18zM168 415q8 0 13.5 8.5
t5.5 20.5v174q0 24 -18 24q-8 0 -13.5 -6.5t-5.5 -16.5v-176q0 -12 5 -20t13 -8zM169 76q6 0 12 9t6 21v203q0 25 -19 25q-18 0 -18 -27v-206q0 -25 19 -25z" />
    <glyph glyph-name="nine" unicode="9" horiz-adv-x="337" 
d="M187 322q-21 -18 -35 -24t-34 -6q-41 0 -68.5 27.5t-27.5 67.5v227q0 114 155 114q139 0 139 -114v-521q0 -105 -148 -105q-76 0 -111 26t-35 84v142h128v-139q0 -25 15 -25q9 0 15.5 7.5t6.5 17.5v221zM169 386q6 0 12 7t6 17v207q0 10 -5 18t-12 8q-20 0 -20 -26v-207
q0 -24 19 -24z" />
    <glyph glyph-name="colon" unicode=":" horiz-adv-x="186" 
d="M36 0v115h114v-115h-114zM36 322v115h114v-115h-114z" />
    <glyph glyph-name="semicolon" unicode=";" horiz-adv-x="176" 
d="M26 322v115h115v-115h-115zM-11 -80l45 195h107l-45 -195h-107z" />
    <glyph glyph-name="less" unicode="&#x3c;" horiz-adv-x="264" 
d="M22 293l102 215h118l-104 -214l104 -214h-116z" />
    <glyph glyph-name="equal" unicode="=" horiz-adv-x="337" 
d="M21 352v75h297v-75h-297zM19 248v74h299v-74h-299z" />
    <glyph glyph-name="greater" unicode="&#x3e;" horiz-adv-x="264" 
d="M22 81l103 214l-103 213h115l105 -213l-103 -214h-117z" />
    <glyph glyph-name="question" unicode="?" horiz-adv-x="308" 
d="M93 0v112h115v-112h-115zM22 482v145q0 51 35 79t101 28q39 0 64.5 -10.5t44.5 -38.5t19 -57v-127q0 -30 -2 -45.5t-7 -28.5l-53 -108q-16 -33 -16 -80v-67h-115v79q0 37 2 49.5t11 31.5l55 119q9 16 11 30v33v113q0 22 -17 22q-19 0 -19 -24v-143h-114z" />
    <glyph glyph-name="at" unicode="@" horiz-adv-x="852" 
d="M459 228q-8 -19 -20 -34q-37 -43 -83 -43q-21 0 -48 11q-81 35 -81 179l4 35q9 59 36.5 108t65.5 76t79 27q31 0 55 -16t35 -44l8 51h51l-36 -210l-13 -83q-3 -21 -3 -35q0 -18 4 -27q4 -14 14 -21t25 -7q5 0 13 2q13 5 24 13t29.5 29t34 55.5t21.5 71t6 60.5
q0 111 -71 182t-180 71q-11 0 -25 -1.5t-22 -2.5q-111 -16 -183.5 -104.5t-72.5 -214.5q0 -7 0.5 -16t1.5 -21q0 -27 7 -52t21 -55q39 -84 108.5 -130t153.5 -46q58 0 113.5 22.5t107.5 69.5q15 13 28 28q9 10 25 31l15 -50l-24 -29q-116 -123 -271 -123q-141 0 -239.5 90.5
t-113.5 235.5q-1 12 -1.5 26t-0.5 22q0 108 47 191t137 136q67 37 137 46q26 3 49 3q134 0 222 -87t88 -218q0 -22 -1 -34t-6 -36q-15 -77 -52 -129.5t-87 -73.5q-24 -10 -48 -10q-34 0 -57 19t-27 48v14zM290 292q0 -45 16 -68t45 -27q4 -1 7 -1h4q27 0 47 23t42 82
q3 10 9.5 36t7.5 34l4 18l5 34q1 8 1.5 21.5t1.5 23.5v12q-3 27 -21 44t-43 17q-13 0 -27 -6q-27 -10 -45 -34t-35 -75q-7 -20 -12 -46.5t-6 -44.5t-1 -43z" />
    <glyph glyph-name="A" unicode="A" horiz-adv-x="326" 
d="M-8 0l71 721h200l70 -721h-121l-16 177h-66l-15 -177h-123zM155 525l-21 -270h58l-20 270l-4 120h-9z" />
    <glyph glyph-name="B" unicode="B" horiz-adv-x="332" 
d="M18 0v721h174q53 0 87.5 -28.5t34.5 -71.5v-178q0 -30 -15.5 -46.5t-56.5 -30.5q43 -15 57.5 -29.5t14.5 -44.5v-189q0 -47 -33 -75t-89 -28h-174zM148 331v-251h14q23 0 23 32v196q0 23 -21 23h-16zM148 644v-235h15q8 0 15 9.5t7 21.5v175q0 12 -9 21q-6 8 -15 8h-13z
" />
    <glyph glyph-name="C" unicode="C" horiz-adv-x="332" 
d="M314 291v-181q0 -35 -18.5 -66.5t-47.5 -43t-87 -11.5q-77 0 -110 30t-33 99v505q0 32 21 61t50 37q12 3 36 6.5t49 3.5h11q129 0 129 -114v-138h-129v139q0 9 -5 17t-11 8q-8 0 -14.5 -6.5t-6.5 -15.5v-514q0 -24 18 -24q19 0 19 25v183h129z" />
    <glyph glyph-name="D" unicode="D" horiz-adv-x="333" 
d="M18 0v721h179q51 0 84.5 -29.5t33.5 -74.5v-506q0 -53 -31 -82t-87 -29h-179zM148 645v-563h17q20 0 20 32v503q0 9 -3 15q-7 13 -18 13h-16z" />
    <glyph glyph-name="E" unicode="E" horiz-adv-x="254" 
d="M18 0v721h225v-95h-95v-202h88v-95h-88v-234h95v-95h-225z" />
    <glyph glyph-name="F" unicode="F" horiz-adv-x="243" 
d="M18 0v721h225v-95h-95v-200h88v-95h-88v-331h-130z" />
    <glyph glyph-name="G" unicode="G" horiz-adv-x="332" 
d="M236 32q-24 -25 -35 -31q-26 -14 -72 -14q-111 0 -111 116v513q0 61 34.5 87t117.5 26q67 0 105.5 -28.5t38.5 -77.5v-146h-129v146q0 19 -21 19q-16 0 -16 -18v-526q0 -21 17 -21q8 0 14 5t6 14v168h-24v85h153v-349h-65z" />
    <glyph glyph-name="H" unicode="H" horiz-adv-x="333" 
d="M18 0v721h130v-298h37v298h130v-721h-130v333h-37v-333h-130z" />
    <glyph glyph-name="I" unicode="I" horiz-adv-x="166" 
d="M18 721h130v-721h-130v721z" />
    <glyph glyph-name="J" unicode="J" horiz-adv-x="332" 
d="M314 721v-611q0 -120 -154 -120q-29 0 -45 3q-17 5 -25 7q-40 11 -56 34.5t-16 73.5v187h129v-190q0 -10 5.5 -16.5t13.5 -6.5q18 0 18 22v617h130z" />
    <glyph glyph-name="K" unicode="K" horiz-adv-x="326" 
d="M18 0v721h130v-184l-4 -103h5l60 287h123l-77 -322l79 -399h-131l-55 374h-5l5 -150v-224h-130z" />
    <glyph glyph-name="L" unicode="L" horiz-adv-x="215" 
d="M18 0v721h130v-626h75v-95h-205z" />
    <glyph glyph-name="M" unicode="M" horiz-adv-x="549" 
d="M18 0v721h197l52 -375l4 -150h7l5 150l51 375h197v-721h-119v354l18 194h-6l-83 -548h-132l-83 548h-7l18 -194v-354h-119z" />
    <glyph glyph-name="N" unicode="N" horiz-adv-x="361" 
d="M18 0v721h147l86 -458h6l-22 185v273h108v-721h-145l-87 457h-5l20 -181v-276h-108z" />
    <glyph glyph-name="O" unicode="O" horiz-adv-x="333" 
d="M315 106q0 -88 -70 -106q-12 -3 -36 -5.5t-45 -2.5l-8 -1q-138 0 -138 112v510q0 42 20 71.5t52 38.5t78 9h8q74 0 106.5 -27.5t32.5 -90.5v-508zM166 90q19 0 19 20v503q0 22 -17 22q-20 0 -20 -22v-504q0 -19 18 -19z" />
    <glyph glyph-name="P" unicode="P" horiz-adv-x="332" 
d="M18 0v721h182q49 0 81.5 -30.5t32.5 -76.5v-238q0 -108 -140 -108h-26v-268h-130zM148 637v-287h17q20 0 20 31v232q0 8 -8 16q-3 4 -5.5 5.5t-3.5 2.5h-20z" />
    <glyph glyph-name="Q" unicode="Q" horiz-adv-x="333" 
d="M321 0h-177q-60 0 -93 30t-33 85v499q0 56 38 87t109 31q68 0 109 -32t41 -86v-442q0 -38 -9 -54t-44 -37h59v-81zM168 93q7 0 12 7t5 17v497q0 20 -20 20q-7 0 -12 -6.5t-5 -16.5v-493q0 -9 6 -17t14 -8z" />
    <glyph glyph-name="R" unicode="R" horiz-adv-x="333" 
d="M18 0v721h178q46 0 82 -33t36 -77v-150q0 -32 -15 -52t-51 -37q21 -6 33.5 -14.5t22.5 -27.5t10 -38v-229q0 -24 12 -63h-134q-7 28 -7 55v239q0 32 -21 32h-16v-326h-130zM148 634v-219h16q21 0 21 28v165q0 8 -6 16q-5 10 -13 10h-18z" />
    <glyph glyph-name="S" unicode="S" horiz-adv-x="332" 
d="M184 474v142q0 22 -15 22q-22 0 -22 -22v-98q0 -27 4 -36t22 -25l89 -78q30 -25 41 -46t11 -53v-166q0 -57 -42.5 -91.5t-110.5 -34.5q-69 0 -106 32t-37 91v179h129v-183q0 -21 16 -21q21 0 21 22v150q0 20 -3 26l-20 21l-94 84q-28 25 -38.5 45.5t-10.5 49.5v134
q0 43 19 71.5t54 36.5q27 8 77 8l8 1q138 0 138 -122v-139h-130z" />
    <glyph glyph-name="T" unicode="T" horiz-adv-x="253" 
d="M-4 626v95h260v-95h-65v-626h-129v626h-66z" />
    <glyph glyph-name="U" unicode="U" horiz-adv-x="333" 
d="M315 721v-615q0 -53 -41 -85t-110 -32q-68 0 -107 30t-39 84v618h130v-614q0 -10 7 -17q4 -4 10 -4q20 0 20 20v615h130z" />
    <glyph glyph-name="V" unicode="V" horiz-adv-x="321" 
d="M-4 721h127l28 -414l6 -203h7l5 203l29 414h126l-70 -721h-187z" />
    <glyph glyph-name="W" unicode="W" horiz-adv-x="569" 
d="M-4 721h128l36 -360l4 -212h8l4 212l28 360h159l29 -360l5 -212h7l5 212l35 360h128l-71 -721h-178l-29 347l-6 208h-8l-5 -208l-30 -347h-178z" />
    <glyph glyph-name="X" unicode="X" horiz-adv-x="325" 
d="M-4 0l70 387l-64 334h116l34 -235l5 -64h12l4 64l35 235h115l-64 -334l71 -387h-130l-28 216l-6 125h-7l-5 -125l-28 -216h-130z" />
    <glyph glyph-name="Y" unicode="Y" horiz-adv-x="320" 
d="M-8 721h131l35 -237l5 -136h8l5 137l35 236h117l-103 -491v-230h-129v230z" />
    <glyph glyph-name="Z" unicode="Z" horiz-adv-x="263" 
d="M8 0v106l122 520h-122v95h247v-106l-118 -520h118v-95h-247z" />
    <glyph glyph-name="bracketleft" unicode="[" horiz-adv-x="185" 
d="M36 0v721h141v-83h-31v-554h31v-84h-141z" />
    <glyph glyph-name="backslash" unicode="\" horiz-adv-x="335" 
d="M38 720h108l126 -720h-108z" />
    <glyph glyph-name="bracketright" unicode="]" horiz-adv-x="185" 
d="M8 0v84h32v554h-32v83h141v-721h-141z" />
    <glyph glyph-name="asciicircum" unicode="^" horiz-adv-x="269" 
d="M1 627l77 111h112l77 -111h-78l-55 89l-54 -89h-79z" />
    <glyph glyph-name="underscore" unicode="_" horiz-adv-x="471" 
d="M38 -36v36h360v-36h-360z" />
    <glyph glyph-name="grave" unicode="`" horiz-adv-x="168" 
d="M-61 744l98 -6l102 -109h-71z" />
    <glyph glyph-name="a" unicode="a" 
d="M165 23q-18 -19 -29 -24t-32 -5q-41 0 -65 23t-24 63v204q0 16 7 30l9 12l15 12l95 68l11 8q6 6 6 16v76q0 14 -16 14q-13 0 -13 -13v-95h-114v98q0 17 11 34q20 31 45.5 42t77.5 11q57 0 90 -24t33 -67v-506h-107v23zM158 91v213q-16 -13 -22.5 -21t-6.5 -16v-175
q0 -15 12 -15q17 0 17 14z" />
    <glyph glyph-name="b" unicode="b" 
d="M15 0v721h114v-145q29 19 56 19q39 0 63 -22t24 -56v-437q0 -86 -83 -86q-24 0 -34.5 4t-32.5 23v-21h-107zM146 70q12 0 12 15v419q0 15 -12 15q-7 0 -12 -4t-5 -10v-422q0 -13 17 -13z" />
    <glyph glyph-name="c" unicode="c" 
d="M272 241v-156q0 -48 -32.5 -69.5t-105.5 -21.5q-119 0 -119 87v425q0 41 34.5 63t97.5 22q59 0 92 -23t33 -64v-125h-114v127q0 15 -14 15q-15 0 -15 -15v-424q0 -17 15 -17q14 0 14 16v160h114z" />
    <glyph glyph-name="d" unicode="d" 
d="M165 28q-23 -20 -38 -27t-37 -7q-35 0 -55 22.5t-20 62.5v437q0 32 24 54t59 22q19 0 30 -4t30 -18v151h114v-721h-107v28zM143 67q15 0 15 18v419q0 14 -16 14q-13 0 -13 -17v-415q0 -19 14 -19z" />
    <glyph glyph-name="e" unicode="e" 
d="M272 236v-165q0 -82 -137 -82q-120 0 -120 86v433q0 88 133 88q64 0 94 -20t30 -62v-232h-143v-206q0 -14 14 -14q15 0 15 14v160h114zM129 509v-145h29v147q0 12 -14 12q-15 0 -15 -14z" />
    <glyph glyph-name="f" unicode="f" horiz-adv-x="159" 
d="M-3 503v80h16v58q0 46 17 63t65 17h68v-66l-15 -1q-20 -3 -20 -28v-43h34v-80h-34v-503h-115v503h-16z" />
    <glyph glyph-name="g" unicode="g" 
d="M158 23q-35 -24 -79 -24q-36 0 -50 18.5t-14 66.5v425q0 35 25.5 58.5t62.5 23.5q18 0 31 -6.5t31 -25.5v24h107v-634q0 -21 -14.5 -40.5t-34.5 -24.5q-8 -2 -29.5 -5.5t-43.5 -3.5l-19 -1q-18 0 -27 1q-11 3 -15 3q-32 8 -54 39q-20 25 -20 40v21h114v-20q0 -21 16 -21
q13 0 13 20v66zM144 75q14 0 14 16v415q0 15 -14 15q-15 0 -15 -15v-416q0 -15 15 -15z" />
    <glyph glyph-name="h" unicode="h" 
d="M15 0v721h114v-153q20 16 30 20t32 4q81 0 81 -76v-516h-114v499q0 17 -14 17q-15 0 -15 -17v-499h-114z" />
    <glyph glyph-name="i" unicode="i" horiz-adv-x="144" 
d="M15 612v109h114v-109h-114zM15 0v583h114v-583h-114z" />
    <glyph glyph-name="j" unicode="j" horiz-adv-x="145" 
d="M16 612v109h114v-109h-114zM-10 -118v76q17 2 21.5 6.5t4.5 22.5v596h114v-607q0 -61 -45 -81q-16 -7 -36 -10t-59 -3z" />
    <glyph glyph-name="k" unicode="k" horiz-adv-x="285" 
d="M15 0v721h117v-264l-9 -93h8l45 212h116l-61 -241l62 -335h-121l-43 310h-6l8 -138v-172h-116z" />
    <glyph glyph-name="l" unicode="l" horiz-adv-x="144" 
d="M15 0v721h114v-721h-114z" />
    <glyph glyph-name="m" unicode="m" horiz-adv-x="431" 
d="M15 0v583h107v-23q21 18 37.5 25t34.5 7q26 0 37 -5t32 -27q19 22 31.5 28t39.5 6q82 0 82 -78v-516h-114v494q0 7 -4 12t-10 5q-16 0 -16 -15v-496h-114v492q0 18 -13 18q-16 0 -16 -15v-495h-114z" />
    <glyph glyph-name="n" unicode="n" 
d="M15 0v583h107v-26q19 19 34 26t36 7q80 0 80 -72v-518h-114v491q0 15 -14 15q-15 0 -15 -14v-492h-114z" />
    <glyph glyph-name="o" unicode="o" 
d="M272 84q0 -30 -17 -55.5t-42 -30.5l-74 -8l-18 -1q-106 0 -106 94v414q0 51 32 74t103 23q58 0 90 -23t32 -65v-422zM143 66q15 0 15 14v421q0 15 -14 15q-15 0 -15 -18v-418q0 -14 14 -14z" />
    <glyph glyph-name="p" unicode="p" 
d="M15 -116v699h107v-26q18 21 31 27.5t35 6.5q40 0 62 -21t22 -62v-424q0 -44 -20.5 -68.5t-57.5 -24.5q-29 0 -65 28v-135h-114zM144 511q-15 0 -15 -18v-400q0 -18 15 -18q3 0 8.5 4.5t5.5 13.5v400q0 18 -14 18z" />
    <glyph glyph-name="q" unicode="q" 
d="M158 21q-27 -32 -66 -32q-77 0 -77 90v435q0 31 23 54t55 23q18 0 31.5 -5t40.5 -22v19h107v-699h-114v137zM144 75q14 0 14 15v404q0 15 -14 15q-15 0 -15 -15v-404q0 -15 15 -15z" />
    <glyph glyph-name="r" unicode="r" 
d="M15 0v583h107v-25q21 19 33.5 25t32.5 6q38 0 61 -20t23 -53v-228h-114v208q0 20 -17 20q-12 0 -12 -18v-498h-114z" />
    <glyph glyph-name="s" unicode="s" 
d="M158 396v105q0 16 -14 16q-15 0 -15 -14v-81q0 -17 4 -26.5t17 -20.5l92 -78q20 -17 25 -31t5 -54v-123q0 -101 -141 -101q-55 0 -85.5 26.5t-30.5 73.5v139h114v-144q0 -14 14 -14q15 0 15 13v118q0 21 -27 44l-73 62l-22 20q-21 24 -21 79v101q0 89 131 89
q126 0 126 -98v-101h-114z" />
    <glyph glyph-name="t" unicode="t" horiz-adv-x="166" 
d="M-3 507v76h21v102h114v-102h38v-75h-38v-392q0 -24 28 -24l10 -1v-91h-56q-56 0 -76 17t-20 65v425h-21z" />
    <glyph glyph-name="u" unicode="u" 
d="M165 28q-20 -22 -32.5 -28t-39.5 -6q-78 0 -78 87v502h114v-490q0 -17 15 -17q14 0 14 16v491h114v-583h-107v28z" />
    <glyph glyph-name="v" unicode="v" horiz-adv-x="272" 
d="M-4 576h115l17 -286l4 -211h9l4 211l16 286h116l-42 -576h-197z" />
    <glyph glyph-name="w" unicode="w" horiz-adv-x="486" 
d="M0 576h114l18 -269l4 -213h8l4 212l18 270h154l18 -270l5 -212h7l5 213l18 269h113l-48 -576h-164l-22 297l-4 194h-9l-4 -194l-22 -297h-164z" />
    <glyph glyph-name="x" unicode="x" horiz-adv-x="298" 
d="M-1 0l59 324l-53 252h113l25 -174l3 -53h8l3 53l24 174h112l-52 -252l58 -324h-122l-21 159l-5 122h-4l-4 -122l-22 -159h-122z" />
    <glyph glyph-name="y" unicode="y" horiz-adv-x="279" 
d="M1 576h108l16 -321l5 -178h7l6 178l20 321h113l-42 -619q0 -39 -25.5 -56t-82.5 -17h-102v71h66q38 0 38 23v22h-50q-16 0 -25.5 5.5t-13 13.5t-3.5 30z" />
    <glyph glyph-name="z" unicode="z" horiz-adv-x="204" 
d="M8 508v75h189v-64l-71 -438h71v-81h-189v75l77 433h-77z" />
    <glyph glyph-name="braceleft" unicode="{" horiz-adv-x="366" 
d="M38 360q11 0 24 5q41 18 41 67v321q0 40 23.5 62.5t65.5 22.5h109v-65h-13q-33 0 -45 -11t-12 -43v-272q0 -27 -14 -48t-39 -32q-12 -5 -27 -7q15 -1 27 -7q23 -10 38 -32t15 -48v-272q0 -30 12 -42t45 -12h13v-65h-109q-43 0 -66 22t-23 63v321q0 31 -18.5 51.5
t-46.5 20.5z" />
    <glyph glyph-name="bar" unicode="|" horiz-adv-x="199" 
d="M38 0v720h108v-720h-108z" />
    <glyph glyph-name="braceright" unicode="}" horiz-adv-x="366" 
d="M38 -118v65h12q33 0 45 11t12 43v272q0 57 54 80q11 5 26 7q-15 2 -26 7q-24 10 -39 32t-15 48v272q0 30 -12 42t-45 12h-12v65h108q43 0 66.5 -22.5t23.5 -62.5v-321q0 -32 18 -52t47 -20q-12 0 -25 -5q-40 -18 -40 -67v-321q0 -40 -23.5 -62.5t-66.5 -22.5h-108z" />
    <glyph glyph-name="asciitilde" unicode="~" horiz-adv-x="261" 
d="M0 806q20 27 37.5 37.5t41.5 10.5q11 0 21 -1.5t37 -10.5t36.5 -11t20.5 -2q23 0 42 23l25 -35q-18 -29 -35 -41t-40 -12q-14 0 -47.5 10.5t-47.5 13.5t-26 3q-22 0 -40 -23z" />
    <glyph glyph-name="nonbreakingspace" unicode="&#xa0;" horiz-adv-x="500" 
 />
    <glyph glyph-name="exclamdown" unicode="&#xa1;" horiz-adv-x="186" 
d="M36 609v112h114v-112h-114zM42 0l2 547h98l2 -547h-102z" />
    <glyph glyph-name="cent" unicode="&#xa2;" horiz-adv-x="294" 
d="M135 0h-23q-40 0 -65 22t-25 59v424q0 27 17 46q13 15 38 27t43 12l18 -1v101h25v-101l21 -1q18 0 27 -3q25 -7 43 -31t18 -50v-125h-113v127q0 15 -12 15q-11 0 -11 -15v-425q0 -17 10 -17q13 0 13 16v160h113v-155q0 -37 -25 -61t-66 -24h-22v-116h-24v116z" />
    <glyph glyph-name="sterling" unicode="&#xa3;" horiz-adv-x="251" 
d="M22 232l5 38l30 -1l53 452h119l-57 -452h54v-37h-57l-18 -137h76v-95h-205l31 232h-31z" />
    <glyph glyph-name="currency" unicode="&#xa4;" horiz-adv-x="494" 
d="M38 211l58 57q-29 43 -29 94q0 50 29 94l-57 55q16 22 37 40l59 -59q41 31 96 31q50 0 92 -30l58 59q25 -17 38 -42l-56 -54q16 -22 23 -44.5t7 -48.5q0 -53 -32 -97l58 -57l-8 -10l-9 -9l-22 -20l-57 58q-43 -32 -94 -32q-50 0 -93 32l-61 -58l-9 10l-9 9l-10 11z
M122 360q0 -45 31.5 -76.5t76.5 -31.5q44 0 76 32t32 76t-32 76t-76 32t-76 -32t-32 -76z" />
    <glyph glyph-name="yen" unicode="&#xa5;" horiz-adv-x="362" 
d="M22 721h122l44 -277l48 277h105l-77 -384h74v-39h-82l-6 -36h88v-35h-94v-227h-129v227h-92v35h86l-7 36h-79v39h71z" />
    <glyph glyph-name="section" unicode="&#xa7;" horiz-adv-x="343" 
d="M191 551v81q0 7 -5 12t-13 5q-22 0 -22 -17v-98q0 -12 14 -18l127 -39q29 -10 29 -41v-398q0 -29 -16 -52t-41 -27l-95 -7l-23 -1q-67 0 -95.5 19.5t-28.5 64.5v94h127v-81q0 -20 21 -20q20 0 20 20v97q0 13 -16 17l-125 40q-11 3 -19 15t-8 26v399q0 30 14.5 51.5t33 26
t43 7t59.5 2.5h16q76 0 104.5 -18.5t28.5 -68.5v-91h-130zM165 276l25 -10v113q0 19 -14 24l-26 11v-112q0 -19 15 -26z" />
    <glyph glyph-name="dieresis" unicode="&#xa8;" horiz-adv-x="238" 
d="M1 628v94h97v-94h-97zM139 628v94h98v-94h-98z" />
    <glyph glyph-name="copyright" unicode="&#xa9;" horiz-adv-x="932" 
d="M58 361q0 74 28 142t81.5 121.5t121.5 81t142 27.5q73 0 141 -27t123 -82q109 -109 109 -263q0 -156 -109 -265t-264 -109t-264 109t-109 265zM117 361q0 -64 24 -122.5t68.5 -104t102.5 -69t119 -23.5q63 0 119.5 22.5t102 69.5t69 105t23.5 121q0 64 -23.5 122t-69 104
t-102 69.5t-119.5 23.5q-61 0 -118 -23t-102.5 -69.5t-69.5 -104t-24 -121.5zM598 538l-37 -53q-33 27 -75 36q-18 3 -35 3q-60 0 -105.5 -38.5t-54.5 -99.5q-3 -17 -3 -31q0 -62 38 -107.5t98 -55.5q18 -2 26 -2q48 0 90 25l20 16l37 -54q-32 -26 -68 -39.5t-78 -13.5
q-101 0 -169 66t-68 162q0 22 4 46t13 47q24 66 83 106t132 40q21 0 42 -3q61 -10 110 -50z" />
    <glyph glyph-name="ordfeminine" unicode="&#xaa;" horiz-adv-x="483" 
d="M48 330h361v-77h-361v77zM324 659v61h84l1 -342h-86v65l-3 -7q-15 -30 -46.5 -48t-72.5 -18q-15 0 -32 3q-58 12 -94.5 59.5t-36.5 112.5v26q3 12 4 17q11 52 42 88q23 27 54.5 41t64.5 14q74 0 112 -56l5 -8zM125 550l2 -21q12 -70 80 -83q7 -1 20 -1t19 2q64 13 77 82
q2 7 2 21q0 15 -2 22q-6 32 -26 54t-50 29q-8 2 -22 2q-36 0 -63.5 -23.5t-34.5 -62.5z" />
    <glyph glyph-name="guillemotleft" unicode="&#xab;" horiz-adv-x="415" 
d="M177 294l102 214h115l-103 -214l101 -213h-111zM22 294l101 214h115l-103 -214l102 -213h-112z" />
    <glyph glyph-name="logicalnot" unicode="&#xac;" horiz-adv-x="653" 
d="M38 360v108h528v-252h-84v144h-444z" />
    <glyph glyph-name="registered" unicode="&#xae;" horiz-adv-x="932" 
d="M58 361q0 74 28 142t81.5 121.5t121.5 81t142 27.5q73 0 141 -27t123 -82q109 -109 109 -263q0 -156 -109 -265t-264 -109t-264 109t-109 265zM117 361q0 -64 24 -122.5t68.5 -104t102.5 -69t119 -23.5q63 0 119.5 22.5t102 69.5t69 105t23.5 121q0 64 -23.5 122t-69 104
t-102 69.5t-119.5 23.5q-61 0 -118 -23t-102.5 -69.5t-69.5 -104t-24 -121.5zM306 140v449h121q69 0 103 -26t43 -71q3 -17 3 -32q0 -46 -26 -78t-70 -40l-13 -1l134 -201h-85l-138 214v-214h-72zM378 381h37q87 0 87 73q0 76 -83 76h-41v-149z" />
    <glyph glyph-name="macron" unicode="&#xaf;" horiz-adv-x="204" 
d="M1 627v69h202v-69h-202z" />
    <glyph glyph-name="plusminus" unicode="&#xb1;" horiz-adv-x="594" 
d="M506 87v-68h-462v68h462zM309 453v-122h197v-68h-197v-122h-68v122h-197v68h197v122h68z" />
    <glyph glyph-name="acute" unicode="&#xb4;" horiz-adv-x="160" 
d="M32 628l103 111l95 5l-126 -116h-72z" />
    <glyph glyph-name="mu" unicode="&#xb5;" horiz-adv-x="623" 
d="M166 449v-296q0 -71 14 -95t50 -24q57 0 95 81t38 204v130h92v-328q0 -45 9.5 -66t28.5 -21q20 0 31.5 20.5t11.5 61.5v14h21l1 -9v-13q0 -55 -23.5 -86t-66.5 -31q-49 0 -75.5 43t-26.5 129q-23 -89 -61.5 -130.5t-96.5 -41.5q-42 0 -73 26q-28 27 -40 77l-1 -28
q0 -65 32 -142t32 -91q0 -20 -11 -31t-31 -11q-23 0 -33 17t-10 53l2 58l2 89l-1 101l-2 95v245h92z" />
    <glyph glyph-name="paragraph" unicode="&#xb6;" horiz-adv-x="655" 
d="M243 720h325v-65h-326q-58 0 -99 -42t-41 -101q0 -58 41 -99t99 -41h65v233h69v-605h-69v307h-65q-84 0 -144 60t-60 146t59.5 146.5t145.5 60.5zM439 0v605h69v-605h-69z" />
    <glyph glyph-name="periodcentered" unicode="&#xb7;" horiz-adv-x="186" 
d="M36 270v115h114v-115h-114z" />
    <glyph glyph-name="periodcentered" unicode="&#x2219;" horiz-adv-x="186" 
d="M36 270v115h114v-115h-114z" />
    <glyph glyph-name="cedilla" unicode="&#xb8;" horiz-adv-x="82" 
d="M75 -90v61h75v-78l-74 -59v31l47 45h-48z" />
    <glyph glyph-name="ordmasculine" unicode="&#xba;" horiz-adv-x="483" 
d="M44 253v77h360v-77h-360zM38 551v15.5t4 22.5q14 66 63.5 106t116.5 40q15 0 24.5 -2t13.5 -2q66 -13 107.5 -63t41.5 -116q0 -23 -4 -40q-13 -64 -63.5 -104.5t-118.5 -40.5q-79 0 -132 53t-53 131zM123 551q0 -13 2 -20q11 -69 78 -84q7 -2 21 -2q37 0 64 23t34 62
q2 16 2 22q0 38 -22 66t-58 36q-7 2 -22 2q-20 0 -39 -8q-49 -22 -58 -77q-2 -5 -2 -11v-9z" />
    <glyph glyph-name="guillemotright" unicode="&#xbb;" horiz-adv-x="415" 
d="M22 81l102 214l-102 213h112l104 -213l-102 -214h-114zM177 81l103 214l-103 213h113l104 -213l-102 -214h-115z" />
    <glyph glyph-name="questiondown" unicode="&#xbf;" horiz-adv-x="308" 
d="M99 609v112h115v-112h-115zM286 239v-145q0 -52 -35 -80t-101 -28q-39 0 -64 10.5t-44.5 39t-19.5 57.5v126q0 56 9 75l52 108q16 33 16 80v67h115v-79q0 -38 -2 -50t-11 -32l-54 -118q-10 -21 -11 -31v-31v-115q0 -21 16 -21q8 0 14 7t6 16v144h114z" />
    <glyph glyph-name="Agrave" unicode="&#xc0;" horiz-adv-x="326" 
d="M-8 0l71 721h200l70 -721h-121l-16 177h-66l-15 -177h-123zM155 525l-21 -270h58l-20 270l-4 120h-9zM18 917l98 -6l102 -109h-71z" />
    <glyph glyph-name="Aacute" unicode="&#xc1;" horiz-adv-x="326" 
d="M-8 0l71 721h200l70 -721h-121l-16 177h-66l-15 -177h-123zM155 525l-21 -270h58l-20 270l-4 120h-9zM115 801l103 111l95 5l-126 -116h-72z" />
    <glyph glyph-name="Acircumflex" unicode="&#xc2;" horiz-adv-x="326" 
d="M-8 0l71 721h200l70 -721h-121l-16 177h-66l-15 -177h-123zM155 525l-21 -270h58l-20 270l-4 120h-9zM29 800l77 111h112l77 -111h-78l-55 89l-54 -89h-79z" />
    <glyph glyph-name="Atilde" unicode="&#xc3;" horiz-adv-x="326" 
d="M-8 0l71 721h200l70 -721h-121l-16 177h-66l-15 -177h-123zM155 525l-21 -270h58l-20 270l-4 120h-9zM38 840q20 25 35.5 33.5t39.5 8.5q15 0 22.5 -1.5t37.5 -11.5q40 -11 53 -11q20 0 40 21l22 -31q-17 -26 -32.5 -36.5t-37.5 -10.5q-9 0 -22 2.5t-30 7.5
q-27 8 -41 11.5t-25 3.5q-21 0 -40 -22z" />
    <glyph glyph-name="Adieresis" unicode="&#xc4;" horiz-adv-x="328" 
d="M19 766v114h111v-114h-111zM175 766v114h110v-114h-110zM-6 0l70 721h200l70 -721h-121l-16 177h-66l-15 -177h-122zM156 525l-21 -270h59l-21 270l-4 120h-9z" />
    <glyph glyph-name="Aring" unicode="&#xc5;" horiz-adv-x="328" 
d="M74 817q0 33 21.5 55.5t52.5 22.5q32 0 54 -22t22 -55q0 -31 -22 -53t-53 -22q-32 0 -53.5 21.5t-21.5 52.5zM-6 0l70 721h200l70 -721h-121l-16 177h-66l-15 -177h-122zM117 818q0 -12 9 -21t22 -9t22 8t9 22q0 33 -30 33q-14 0 -23 -9t-9 -24zM156 525l-21 -270h59
l-21 270l-4 120h-9z" />
    <glyph glyph-name="AE" unicode="&#xc6;" horiz-adv-x="439" 
d="M-8 0l119 721h316v-95h-95v-207h87v-95h-87v-229h95v-95h-225v181h-72l-27 -181h-111zM202 615l-60 -343h60v343z" />
    <glyph glyph-name="Ccedilla" unicode="&#xc7;" horiz-adv-x="332" 
d="M122 -125v88h94v-98l-93 -77v40l50 47h-51zM314 291v-181q0 -35 -18.5 -66.5t-47.5 -43t-87 -11.5q-77 0 -110 30t-33 99v505q0 32 21 61t50 37q12 3 36 6.5t49 3.5h11q129 0 129 -114v-138h-129v139q0 9 -5 17t-11 8q-8 0 -14.5 -6.5t-6.5 -15.5v-514q0 -24 18 -24
q19 0 19 25v183h129z" />
    <glyph glyph-name="Egrave" unicode="&#xc8;" horiz-adv-x="254" 
d="M18 0v721h225v-95h-95v-202h88v-95h-88v-234h95v-95h-225zM-18 917l98 -6l102 -109h-71z" />
    <glyph glyph-name="Eacute" unicode="&#xc9;" horiz-adv-x="254" 
d="M18 0v721h225v-95h-95v-202h88v-95h-88v-234h95v-95h-225zM79 801l103 111l95 5l-126 -116h-72z" />
    <glyph glyph-name="Ecircumflex" unicode="&#xca;" horiz-adv-x="254" 
d="M18 0v721h225v-95h-95v-202h88v-95h-88v-234h95v-95h-225zM-6 800l77 111h112l77 -111h-78l-55 89l-54 -89h-79z" />
    <glyph glyph-name="Edieresis" unicode="&#xcb;" horiz-adv-x="254" 
d="M18 0v721h225v-95h-95v-202h88v-95h-88v-234h95v-95h-225zM9 801v94h97v-94h-97zM147 801v94h98v-94h-98z" />
    <glyph glyph-name="Igrave" unicode="&#xcc;" horiz-adv-x="166" 
d="M18 721h130v-721h-130v721zM-62 917l98 -6l102 -109h-71z" />
    <glyph glyph-name="Iacute" unicode="&#xcd;" horiz-adv-x="166" 
d="M18 721h130v-721h-130v721zM35 801l103 111l95 5l-126 -116h-72z" />
    <glyph glyph-name="Icircumflex" unicode="&#xce;" horiz-adv-x="166" 
d="M18 721h130v-721h-130v721zM-50 800l77 111h112l77 -111h-78l-55 89l-54 -89h-79z" />
    <glyph glyph-name="Idieresis" unicode="&#xcf;" horiz-adv-x="166" 
d="M18 721h130v-721h-130v721zM-35 801v94h97v-94h-97zM103 801v94h98v-94h-98z" />
    <glyph glyph-name="Ntilde" unicode="&#xd1;" horiz-adv-x="361" 
d="M18 0v721h147l86 -458h6l-22 185v273h108v-721h-145l-87 457h-5l20 -181v-276h-108zM55 840q20 25 35.5 33.5t39.5 8.5q15 0 22.5 -1.5t37.5 -11.5q40 -11 53 -11q20 0 40 21l22 -31q-17 -26 -32.5 -36.5t-37.5 -10.5q-9 0 -22 2.5t-30 7.5q-27 8 -41 11.5t-25 3.5
q-21 0 -40 -22z" />
    <glyph glyph-name="Ograve" unicode="&#xd2;" horiz-adv-x="333" 
d="M315 106q0 -88 -70 -106q-12 -3 -36 -5.5t-45 -2.5l-8 -1q-138 0 -138 112v510q0 42 20 71.5t52 38.5t78 9h8q74 0 106.5 -27.5t32.5 -90.5v-508zM166 90q19 0 19 20v503q0 22 -17 22q-20 0 -20 -22v-504q0 -19 18 -19zM21 917l98 -6l102 -109h-71z" />
    <glyph glyph-name="Oacute" unicode="&#xd3;" horiz-adv-x="333" 
d="M315 106q0 -88 -70 -106q-12 -3 -36 -5.5t-45 -2.5l-8 -1q-138 0 -138 112v510q0 42 20 71.5t52 38.5t78 9h8q74 0 106.5 -27.5t32.5 -90.5v-508zM166 90q19 0 19 20v503q0 22 -17 22q-20 0 -20 -22v-504q0 -19 18 -19zM118 801l103 111l95 5l-126 -116h-72z" />
    <glyph glyph-name="Ocircumflex" unicode="&#xd4;" horiz-adv-x="333" 
d="M315 106q0 -88 -70 -106q-12 -3 -36 -5.5t-45 -2.5l-8 -1q-138 0 -138 112v510q0 42 20 71.5t52 38.5t78 9h8q74 0 106.5 -27.5t32.5 -90.5v-508zM166 90q19 0 19 20v503q0 22 -17 22q-20 0 -20 -22v-504q0 -19 18 -19zM33 800l77 111h112l77 -111h-78l-55 89l-54 -89
h-79z" />
    <glyph glyph-name="Otilde" unicode="&#xd5;" horiz-adv-x="333" 
d="M315 106q0 -88 -70 -106q-12 -3 -36 -5.5t-45 -2.5l-8 -1q-138 0 -138 112v510q0 42 20 71.5t52 38.5t78 9h8q74 0 106.5 -27.5t32.5 -90.5v-508zM166 90q19 0 19 20v503q0 22 -17 22q-20 0 -20 -22v-504q0 -19 18 -19zM41 840q20 25 35.5 33.5t39.5 8.5q15 0 22.5 -1.5
t37.5 -11.5q40 -11 53 -11q20 0 40 21l22 -31q-17 -26 -32.5 -36.5t-37.5 -10.5q-9 0 -22 2.5t-30 7.5q-27 8 -41 11.5t-25 3.5q-21 0 -40 -22z" />
    <glyph glyph-name="Odieresis" unicode="&#xd6;" horiz-adv-x="333" 
d="M34 766v114h110v-114h-110zM189 766v114h110v-114h-110zM315 106q0 -88 -70 -106q-12 -3 -36 -5.5t-45 -2.5l-8 -1q-138 0 -138 112v510q0 42 20 71.5t52 38.5t78 9h8q74 0 106.5 -27.5t32.5 -90.5v-508zM166 90q19 0 19 20v503q0 22 -17 22q-20 0 -20 -22v-504
q0 -19 18 -19z" />
    <glyph glyph-name="Oslash" unicode="&#xd8;" horiz-adv-x="332" 
d="M-4 -12l28 71q-4 16 -5 24t-1 20v510q0 38 17 66q15 29 45.5 41t91.5 12q49 0 65.5 -5t48.5 -30l26 66l30 -11l-37 -83q5 -24 7 -33t2 -22v-508q0 -30 -11 -57q-14 -32 -45 -44.5t-95 -12.5q-53 0 -70.5 5.5t-50.5 31.5l-20 -52zM184 371l-37 -89v-173q0 -19 18 -19
q20 0 20 20zM147 613v-258l37 90v168q0 21 -16 21q-9 0 -15 -6t-6 -15z" />
    <glyph glyph-name="Ugrave" unicode="&#xd9;" horiz-adv-x="333" 
d="M315 721v-615q0 -53 -41 -85t-110 -32q-68 0 -107 30t-39 84v618h130v-614q0 -10 7 -17q4 -4 10 -4q20 0 20 20v615h130zM21 917l98 -6l102 -109h-71z" />
    <glyph glyph-name="Uacute" unicode="&#xda;" horiz-adv-x="333" 
d="M315 721v-615q0 -53 -41 -85t-110 -32q-68 0 -107 30t-39 84v618h130v-614q0 -10 7 -17q4 -4 10 -4q20 0 20 20v615h130zM118 801l103 111l95 5l-126 -116h-72z" />
    <glyph glyph-name="Ucircumflex" unicode="&#xdb;" horiz-adv-x="333" 
d="M315 721v-615q0 -53 -41 -85t-110 -32q-68 0 -107 30t-39 84v618h130v-614q0 -10 7 -17q4 -4 10 -4q20 0 20 20v615h130zM33 800l77 111h112l77 -111h-78l-55 89l-54 -89h-79z" />
    <glyph glyph-name="Udieresis" unicode="&#xdc;" horiz-adv-x="333" 
d="M36 766v114h110v-114h-110zM191 766v114h110v-114h-110zM315 721v-615q0 -53 -41 -85t-110 -32q-68 0 -107 30t-39 84v618h130v-614q0 -10 7 -17q4 -4 10 -4q20 0 20 20v615h130z" />
    <glyph glyph-name="germandbls" unicode="&#xdf;" horiz-adv-x="290" 
d="M15 0v644q0 88 135 88q51 0 84 -24t33 -62v-130q0 -26 -36 -50q27 -11 35.5 -23.5t8.5 -38.5v-333q0 -33 -27.5 -52t-76.5 -19l-29 1v78q17 3 17 25v293v18l-16 7v82q11 3 13.5 7.5t2.5 19.5v109q0 23 -13 23q-6 0 -11 -7t-5 -16v-640h-115z" />
    <glyph glyph-name="agrave" unicode="&#xe0;" 
d="M165 23q-18 -19 -29 -24t-32 -5q-41 0 -65 23t-24 63v204q0 16 7 30l9 12l15 12l95 68l11 8q6 6 6 16v76q0 14 -16 14q-13 0 -13 -13v-95h-114v98q0 17 11 34q20 31 45.5 42t77.5 11q57 0 90 -24t33 -67v-506h-107v23zM158 91v213q-16 -13 -22.5 -21t-6.5 -16v-175
q0 -15 12 -15q17 0 17 14zM-1 744l98 -6l102 -109h-71z" />
    <glyph glyph-name="aacute" unicode="&#xe1;" 
d="M165 23q-18 -19 -29 -24t-32 -5q-41 0 -65 23t-24 63v204q0 16 7 30l9 12l15 12l95 68l11 8q6 6 6 16v76q0 14 -16 14q-13 0 -13 -13v-95h-114v98q0 17 11 34q20 31 45.5 42t77.5 11q57 0 90 -24t33 -67v-506h-107v23zM158 91v213q-16 -13 -22.5 -21t-6.5 -16v-175
q0 -15 12 -15q17 0 17 14zM96 628l103 111l95 5l-126 -116h-72z" />
    <glyph glyph-name="acircumflex" unicode="&#xe2;" 
d="M165 23q-18 -19 -29 -24t-32 -5q-41 0 -65 23t-24 63v204q0 16 7 30l9 12l15 12l95 68l11 8q6 6 6 16v76q0 14 -16 14q-13 0 -13 -13v-95h-114v98q0 17 11 34q20 31 45.5 42t77.5 11q57 0 90 -24t33 -67v-506h-107v23zM158 91v213q-16 -13 -22.5 -21t-6.5 -16v-175
q0 -15 12 -15q17 0 17 14zM10 627l77 111h112l77 -111h-78l-55 89l-54 -89h-79z" />
    <glyph glyph-name="atilde" unicode="&#xe3;" 
d="M165 23q-18 -19 -29 -24t-32 -5q-41 0 -65 23t-24 63v204q0 16 7 30l9 12l15 12l95 68l11 8q6 6 6 16v76q0 14 -16 14q-13 0 -13 -13v-95h-114v98q0 17 11 34q20 31 45.5 42t77.5 11q57 0 90 -24t33 -67v-506h-107v23zM158 91v213q-16 -13 -22.5 -21t-6.5 -16v-175
q0 -15 12 -15q17 0 17 14zM19 667q20 25 35.5 33.5t39.5 8.5q15 0 22.5 -1.5t37.5 -11.5q40 -11 53 -11q20 0 40 21l22 -31q-17 -26 -32.5 -36.5t-37.5 -10.5q-9 0 -22 2.5t-30 7.5q-27 8 -41 11.5t-25 3.5q-21 0 -40 -22z" />
    <glyph glyph-name="adieresis" unicode="&#xe4;" 
d="M165 23q-18 -19 -29 -24t-32 -5q-41 0 -65 23t-24 63v204q0 16 7 30l9 12l15 12l95 68l11 8q6 6 6 16v76q0 14 -16 14q-13 0 -13 -13v-95h-114v98q0 17 11 34q20 31 45.5 42t77.5 11q57 0 90 -24t33 -67v-506h-107v23zM28 628v94h97v-94h-97zM166 628v94h98v-94h-98z
M158 91v213q-16 -13 -22.5 -21t-6.5 -16v-175q0 -15 12 -15q17 0 17 14z" />
    <glyph glyph-name="aring" unicode="&#xe5;" 
d="M165 23q-18 -19 -29 -24t-32 -5q-41 0 -65 23t-24 63v204q0 16 7 30l9 12l15 12l95 68l11 8q6 6 6 16v76q0 14 -16 14q-13 0 -13 -13v-95h-114v98q0 17 11 34q20 31 45.5 42t77.5 11q57 0 90 -24t33 -67v-506h-107v23zM85 689q0 28 19.5 48.5t46.5 20.5q29 0 48 -20
t19 -49q0 -27 -19 -47t-47 -20t-47.5 19.5t-19.5 47.5zM158 91v213q-16 -13 -22.5 -21t-6.5 -16v-175q0 -15 12 -15q17 0 17 14zM152 719q-11 0 -20 -9t-9 -21q0 -11 8 -19t20 -8q30 0 30 28q0 12 -8.5 20.5t-20.5 8.5z" />
    <glyph glyph-name="ae" unicode="&#xe6;" horiz-adv-x="418" 
d="M171 22q-21 -20 -35.5 -26.5t-37.5 -6.5q-44 0 -63.5 21.5t-19.5 69.5v200l3 26q5 15 13 24q6 5 12.5 9.5t20.5 11.5l73 47q21 13 21 37v66q0 14 -12 14q-7 0 -12 -4t-5 -10v-104h-114v104q0 41 33 66t86 25q30 0 42.5 -4.5t34.5 -22.5q19 17 32 22t41 5q55 0 86.5 -24
t31.5 -66v-221l-143 -3v-199q0 -18 13 -18q18 0 18 18v159h113v-157q0 -38 -12 -55t-38.5 -27.5t-55.5 -10.5q-18 0 -33 2t-43 10h-50v22zM158 83v222q-24 -11 -28 -20l-1 -19v-184q0 -17 15 -17q3 0 8.5 4.5t5.5 13.5zM259 499v-143h31v147q0 5 -4 9t-9 4q-18 0 -18 -17z
" />
    <glyph glyph-name="ccedilla" unicode="&#xe7;" 
d="M272 241v-156q0 -48 -32.5 -69.5t-105.5 -21.5q-119 0 -119 87v425q0 41 34.5 63t97.5 22q59 0 92 -23t33 -64v-125h-114v127q0 15 -14 15q-15 0 -15 -15v-424q0 -17 15 -17q14 0 14 16v160h114zM105 -90v61h76v-78l-75 -59v31l48 45h-49z" />
    <glyph glyph-name="egrave" unicode="&#xe8;" 
d="M272 236v-165q0 -82 -137 -82q-120 0 -120 86v433q0 88 133 88q64 0 94 -20t30 -62v-232h-143v-206q0 -14 14 -14q15 0 15 14v160h114zM129 509v-145h29v147q0 12 -14 12q-15 0 -15 -14zM-1 744l98 -6l102 -109h-71z" />
    <glyph glyph-name="eacute" unicode="&#xe9;" 
d="M272 236v-165q0 -82 -137 -82q-120 0 -120 86v433q0 88 133 88q64 0 94 -20t30 -62v-232h-143v-206q0 -14 14 -14q15 0 15 14v160h114zM129 509v-145h29v147q0 12 -14 12q-15 0 -15 -14zM96 628l103 111l95 5l-126 -116h-72z" />
    <glyph glyph-name="ecircumflex" unicode="&#xea;" 
d="M272 236v-165q0 -82 -137 -82q-120 0 -120 86v433q0 88 133 88q64 0 94 -20t30 -62v-232h-143v-206q0 -14 14 -14q15 0 15 14v160h114zM129 509v-145h29v147q0 12 -14 12q-15 0 -15 -14zM10 627l77 111h112l77 -111h-78l-55 89l-54 -89h-79z" />
    <glyph glyph-name="edieresis" unicode="&#xeb;" 
d="M272 236v-165q0 -82 -137 -82q-120 0 -120 86v433q0 88 133 88q64 0 94 -20t30 -62v-232h-143v-206q0 -14 14 -14q15 0 15 14v160h114zM129 509v-145h29v147q0 12 -14 12q-15 0 -15 -14zM26 628v94h97v-94h-97zM164 628v94h98v-94h-98z" />
    <glyph glyph-name="igrave" unicode="&#xec;" horiz-adv-x="144" 
d="M15 0v583h114v-583h-114zM-73 744l98 -6l102 -109h-71z" />
    <glyph glyph-name="iacute" unicode="&#xed;" horiz-adv-x="144" 
d="M15 0v583h114v-583h-114zM24 628l103 111l95 5l-126 -116h-72z" />
    <glyph glyph-name="icircumflex" unicode="&#xee;" horiz-adv-x="144" 
d="M15 0v583h114v-583h-114zM-61 627l77 111h112l77 -111h-78l-55 89l-54 -89h-79z" />
    <glyph glyph-name="idieresis" unicode="&#xef;" horiz-adv-x="144" 
d="M15 0v583h114v-583h-114zM-46 628v94h97v-94h-97zM92 628v94h98v-94h-98z" />
    <glyph glyph-name="ntilde" unicode="&#xf1;" 
d="M15 0v583h107v-26q19 19 34 26t36 7q80 0 80 -72v-518h-114v491q0 15 -14 15q-15 0 -15 -14v-492h-114zM19 667q20 25 35.5 33.5t39.5 8.5q15 0 22.5 -1.5t37.5 -11.5q40 -11 53 -11q20 0 40 21l22 -31q-17 -26 -32.5 -36.5t-37.5 -10.5q-9 0 -22 2.5t-30 7.5
q-27 8 -41 11.5t-25 3.5q-21 0 -40 -22z" />
    <glyph glyph-name="ograve" unicode="&#xf2;" 
d="M272 84q0 -30 -17 -55.5t-42 -30.5l-74 -8l-18 -1q-106 0 -106 94v414q0 51 32 74t103 23q58 0 90 -23t32 -65v-422zM143 66q15 0 15 14v421q0 15 -14 15q-15 0 -15 -18v-418q0 -14 14 -14zM-1 744l98 -6l102 -109h-71z" />
    <glyph glyph-name="oacute" unicode="&#xf3;" 
d="M272 84q0 -30 -17 -55.5t-42 -30.5l-74 -8l-18 -1q-106 0 -106 94v414q0 51 32 74t103 23q58 0 90 -23t32 -65v-422zM143 66q15 0 15 14v421q0 15 -14 15q-15 0 -15 -18v-418q0 -14 14 -14zM96 628l103 111l95 5l-126 -116h-72z" />
    <glyph glyph-name="ocircumflex" unicode="&#xf4;" 
d="M272 84q0 -30 -17 -55.5t-42 -30.5l-74 -8l-18 -1q-106 0 -106 94v414q0 51 32 74t103 23q58 0 90 -23t32 -65v-422zM143 66q15 0 15 14v421q0 15 -14 15q-15 0 -15 -18v-418q0 -14 14 -14zM10 627l77 111h112l77 -111h-78l-55 89l-54 -89h-79z" />
    <glyph glyph-name="otilde" unicode="&#xf5;" 
d="M272 84q0 -30 -17 -55.5t-42 -30.5l-74 -8l-18 -1q-106 0 -106 94v414q0 51 32 74t103 23q58 0 90 -23t32 -65v-422zM143 66q15 0 15 14v421q0 15 -14 15q-15 0 -15 -18v-418q0 -14 14 -14zM19 667q20 25 35.5 33.5t39.5 8.5q15 0 22.5 -1.5t37.5 -11.5q40 -11 53 -11
q20 0 40 21l22 -31q-17 -26 -32.5 -36.5t-37.5 -10.5q-9 0 -22 2.5t-30 7.5q-27 8 -41 11.5t-25 3.5q-21 0 -40 -22z" />
    <glyph glyph-name="odieresis" unicode="&#xf6;" 
d="M272 84q0 -30 -17 -55.5t-42 -30.5l-74 -8l-18 -1q-106 0 -106 94v414q0 51 32 74t103 23q58 0 90 -23t32 -65v-422zM26 628v94h97v-94h-97zM164 628v94h98v-94h-98zM143 66q15 0 15 14v421q0 15 -14 15q-15 0 -15 -18v-418q0 -14 14 -14z" />
    <glyph glyph-name="divide" unicode="&#xf7;" horiz-adv-x="594" 
d="M234 141q19 17 41 17q24 0 40 -16t16 -41q0 -24 -17 -40q-15 -17 -39 -17t-40.5 17.5t-16.5 39.5q0 24 16 40zM506 270v-68h-463v68h463zM234 410q19 17 41 17q24 0 39 -17q17 -17 17 -40q0 -24 -17 -40q-15 -17 -39 -17t-40.5 16.5t-16.5 40.5t16 40z" />
    <glyph glyph-name="oslash" unicode="&#xf8;" 
d="M-45 0l60 104v393q0 34 17 60q16 21 39.5 29t77.5 8q45 0 68 -11t42 -42l42 55l25 -20l-54 -97v-395q0 -29 -16.5 -53.5t-40.5 -32t-74 -11.5h-15q-42 0 -63.5 12.5t-38.5 45.5l-38 -60zM159 80v196l-29 -38v-158q0 -14 11 -14q6 0 12 4t6 10zM130 498v-187l29 41v149
q0 16 -15 16q-6 0 -10 -5.5t-4 -13.5z" />
    <glyph glyph-name="ugrave" unicode="&#xf9;" 
d="M165 28q-20 -22 -32.5 -28t-39.5 -6q-78 0 -78 87v502h114v-490q0 -17 15 -17q14 0 14 16v491h114v-583h-107v28zM-1 744l98 -6l102 -109h-71z" />
    <glyph glyph-name="uacute" unicode="&#xfa;" 
d="M165 28q-20 -22 -32.5 -28t-39.5 -6q-78 0 -78 87v502h114v-490q0 -17 15 -17q14 0 14 16v491h114v-583h-107v28zM96 628l103 111l95 5l-126 -116h-72z" />
    <glyph glyph-name="ucircumflex" unicode="&#xfb;" 
d="M165 28q-20 -22 -32.5 -28t-39.5 -6q-78 0 -78 87v502h114v-490q0 -17 15 -17q14 0 14 16v491h114v-583h-107v28zM10 627l77 111h112l77 -111h-78l-55 89l-54 -89h-79z" />
    <glyph glyph-name="udieresis" unicode="&#xfc;" 
d="M165 28q-20 -22 -32.5 -28t-39.5 -6q-78 0 -78 87v502h114v-490q0 -17 15 -17q14 0 14 16v491h114v-583h-107v28zM26 628v94h97v-94h-97zM164 628v94h98v-94h-98z" />
    <glyph glyph-name="ydieresis" unicode="&#xff;" horiz-adv-x="279" 
d="M1 576h108l16 -321l5 -178h7l6 178l20 321h113l-42 -619q0 -39 -25.5 -56t-82.5 -17h-102v71h66q38 0 38 23v22h-50q-16 0 -25.5 5.5t-13 13.5t-3.5 30zM21 628v94h97v-94h-97zM159 628v94h98v-94h-98z" />
    <glyph glyph-name="notequal" unicode="&#x112;" horiz-adv-x="594" 
d="M488 410l-75 -74h91v-64h-149l-73 -72h222v-64h-281l-118 -118l-43 44l74 74h-91v64h150l73 72h-223v64h281l118 118z" />
    <glyph glyph-name="infinity" unicode="&#x113;" horiz-adv-x="771" 
d="M430 144q-36 31 -64 94q-33 -62 -71.5 -93t-85.5 -31q-66 0 -111 52.5t-45 131.5q0 83 41 134.5t105 51.5q47 0 82.5 -29.5t65.5 -94.5q31 62 69.5 93t87.5 31q63 0 109 -53t46 -131q0 -83 -40.5 -134.5t-104.5 -51.5q-46 0 -84 30zM257 205q30 30 73 122
q-26 46 -59 69.5t-76 23.5q-51 0 -84 -35t-33 -90q0 -54 29.5 -88.5t76.5 -34.5q40 0 73 33zM453 390q-33 -36 -70 -119q23 -45 58 -70q35 -23 77 -23q52 0 84.5 35t32.5 90q0 56 -30 89.5t-80 33.5q-37 0 -72 -36z" />
    <glyph glyph-name="lessequal" unicode="&#x114;" horiz-adv-x="594" 
d="M506 86v-68h-463v68h463zM506 388l-344 -108l344 -107v-70l-462 145v65l462 145v-70z" />
    <glyph glyph-name="greaterequal" unicode="&#x115;" horiz-adv-x="594" 
d="M506 86v-68h-463v68h463zM506 313v-65l-463 -145v70l344 107l-344 108v70z" />
    <glyph glyph-name="partialdiff" unicode="&#x116;" horiz-adv-x="534" 
d="M313 357q28 -21 45 -70q4 14 6.5 28t2.5 31l3 89q0 85 -15.5 126t-47.5 41q-18 0 -50 -35t-56 -35q-16 0 -25.5 7.5t-11.5 24.5q0 29 29 50q32 21 73 21q77 0 124 -72q22 -36 34 -85t12 -111q0 -163 -64.5 -271.5t-157.5 -108.5q-68 0 -110 51t-42 137q0 82 53 143.5
t125 61.5q44 0 73 -23zM319 317q-21 32 -63 32q-52 0 -86 -60t-34 -161q0 -57 21.5 -88t62.5 -31q53 0 87 62t34 153q0 58 -22 93z" />
    <glyph glyph-name="summation" unicode="&#x117;" horiz-adv-x="771" 
d="M592 729q17 -13 26 -86l15 -129h-44q-32 105 -85 144t-169 39h-132l315 -431l-344 -394h187q122 0 172.5 31.5t82.5 116.5h45l-30 -130l-2 -7q-23 -99 -111 -99h-482l389 446l-375 514h460q65 0 82 -15z" />
    <glyph glyph-name="product" unicode="&#x118;" horiz-adv-x="890" 
d="M30 -176h88v880h-88v40h767v-40h-88v-880h88v-40h-264v40h84v880h-407v-880h84v-40h-264v40z" />
    <glyph glyph-name="pi" unicode="&#x119;" horiz-adv-x="594" 
d="M414 372l-10 1l-1 -24l-3 -150v-40q0 -84 8.5 -105t30.5 -21q28 0 41 29q17 31 17 89h25v-5q0 -80 -26 -118t-80 -38q-56 0 -80 39q-23 41 -23 165l1 78l3 104l-50 1l-77 2q0 -234 -23 -311.5t-80 -77.5q-35 0 -52.5 29t-17.5 86v19h24q0 -27 9.5 -39.5t27.5 -12.5
q42 0 58 62q9 32 14.5 95.5t5.5 149.5h-22q-38 0 -59.5 -13.5t-27.5 -39.5h-23q0 34 10 57.5t28 38.5q35 27 121 27l102 -3l152 -3q34 0 49.5 7t16.5 21l23 1q0 -53 -23.5 -76.5t-74.5 -23.5h-14z" />
    <glyph glyph-name="integral" unicode="&#x11a;" horiz-adv-x="296" 
d="M200 726q38 31 83 31q36 0 58.5 -18.5t22.5 -48.5q0 -20 -13 -34t-36 -14q-29 0 -44 32t-29 32q-57 0 -57 -310l-3 -98q0 -63 -4.5 -120t-11.5 -109q-12 -90 -31 -133q-24 -55 -62.5 -86t-81.5 -31q-35 0 -58 18.5t-23 48.5q0 22 12.5 34.5t36.5 12.5q29 0 44 -31t30 -32
q57 0 57 324l2 84q0 60 4 116t11 111q12 88 32 135q24 55 61 86z" />
    <glyph glyph-name="Omega" unicode="&#x11b;" horiz-adv-x="830" 
d="M470 90h123q48 0 67 17q21 21 21 69h23v-176h-272v180q77 15 122.5 76.5t45.5 151.5q0 106 -59 168.5t-157 62.5t-157 -62.5t-59 -168.5q0 -90 44.5 -151t123.5 -77v-180h-272v176h23q0 -48 19 -67t69 -19h123v59q-118 21 -183 89t-65 170q0 121 92.5 194t241.5 73
t241.5 -73.5t92.5 -193.5q0 -100 -64 -168t-184 -91v-59z" />
    <glyph glyph-name="radical" unicode="&#x11c;" horiz-adv-x="594" 
d="M594 811v-47h-57l-290 -784h-32l-156 431l-61 -22l-12 39l138 48l125 -346l252 681h93z" />
    <glyph glyph-name="approxequal" unicode="&#x11d;" horiz-adv-x="594" 
d="M102 153q-16 -7 -38.5 -20.5t-48.5 -32.5v77q49 31 87 44.5t74 13.5q44 0 115 -24t99 -24t61.5 15t82.5 52v-78q-42 -28 -76.5 -41.5t-72.5 -13.5q-32 0 -104 23.5t-116 23.5q-28 0 -63 -15zM104 273q-31 -13 -89 -54v77q23 14 43.5 25t40.5 18q40 14 76 14
q42 0 114.5 -23.5t100.5 -23.5q27 0 61 14q32 15 83 52v-77q-18 -12 -41 -24t-38 -18q-37 -13 -70 -13t-104.5 23.5t-110.5 23.5q-35 0 -66 -14z" />
    <glyph glyph-name="Gbreve" unicode="&#x11e;" horiz-adv-x="662" 
d="M319 672l276 -672h-574l276 672h22zM279 504l-187 -459h373z" />
    <glyph glyph-name="gbreve" unicode="&#x11f;" horiz-adv-x="534" 
d="M3 289l244 518l244 -518l-244 -522zM435 289l-188 399l-188 -399l188 -403z" />
    <glyph glyph-name="apple" unicode="&#x120;" horiz-adv-x="854" 
d="M408 594l-1 7v11q0 61 46 112t116 64v-12l1 -18q0 -64 -50.5 -114.5t-99.5 -50.5h-4zM650 264q31 -44 85 -67q-56 -121 -101 -167.5t-99 -46.5q-25 0 -64 16t-60 16q-23 0 -64 -16t-62 -16q-30 0 -63 21q-13 10 -30.5 27.5t-32.5 37.5q-47 65 -75.5 143t-28.5 148
q0 107 61.5 174.5t157.5 67.5q16 0 35.5 -4t40.5 -13q43 -17 60 -17q18 0 59 17q45 17 75 17q55 0 97.5 -19.5t77.5 -60.5q-49 -31 -73.5 -70.5t-24.5 -89.5q0 -54 29 -98z" />
    <glyph glyph-name="dotlessi" unicode="&#x131;" horiz-adv-x="144" 
d="M15 0v583h114v-583h-114z" />
    <glyph glyph-name="OE" unicode="&#x152;" horiz-adv-x="421" 
d="M237 0l-86 -6q-63 0 -98 30t-35 86v506q0 52 35.5 84.5t94.5 32.5q29 0 83 -12h179v-95h-95v-207h87v-95h-87v-229h95v-95h-173zM165 89q20 0 20 20v505q0 24 -17 24q-20 0 -20 -22v-506q0 -21 17 -21z" />
    <glyph glyph-name="oe" unicode="&#x153;" horiz-adv-x="422" 
d="M211 13q-27 -16 -42.5 -20t-47.5 -4q-106 0 -106 92v420q0 37 33.5 63.5t82.5 26.5q22 0 38.5 -5t42.5 -21q20 18 32.5 22t49.5 4q51 0 82.5 -24.5t31.5 -65.5v-217h-144v-203q0 -17 12 -17q17 0 17 18v153h113v-155q0 -37 -12.5 -54.5t-43 -27t-64.5 -9.5q-30 0 -42.5 4
t-32.5 20zM146 59q12 0 12 21v419q0 15 -12 15q-17 0 -17 -17v-414q0 -24 17 -24zM264 501v-146l29 1v143q0 7 -5 13t-13 6q-11 0 -11 -17z" />
    <glyph glyph-name="Scaron" unicode="&#x160;" horiz-adv-x="332" 
d="M184 474v142q0 22 -15 22q-22 0 -22 -22v-98q0 -27 4 -36t22 -25l89 -78q30 -25 41 -46t11 -53v-166q0 -57 -42.5 -91.5t-110.5 -34.5q-69 0 -106 32t-37 91v179h129v-183q0 -21 16 -21q21 0 21 22v150q0 20 -3 26l-20 21l-94 84q-28 25 -38.5 45.5t-10.5 49.5v134
q0 43 19 71.5t54 36.5q27 8 77 8l8 1q138 0 138 -122v-139h-130zM32 910l79 -1l54 -86l55 87h78l-77 -110h-112z" />
    <glyph glyph-name="scaron" unicode="&#x161;" 
d="M158 396v105q0 16 -14 16q-15 0 -15 -14v-81q0 -17 4 -26.5t17 -20.5l92 -78q20 -17 25 -31t5 -54v-123q0 -101 -141 -101q-55 0 -85.5 26.5t-30.5 73.5v139h114v-144q0 -14 14 -14q15 0 15 13v118q0 21 -27 44l-73 62l-22 20q-21 24 -21 79v101q0 89 131 89
q126 0 126 -98v-101h-114zM10 737l79 -1l54 -86l55 87h78l-77 -110h-112z" />
    <glyph glyph-name="Ydieresis" unicode="&#x178;" horiz-adv-x="320" 
d="M-8 721h131l35 -237l5 -136h8l5 137l35 236h117l-103 -491v-230h-129v230zM42 801v94h97v-94h-97zM180 801v94h98v-94h-98z" />
    <glyph glyph-name="Zcaron" unicode="&#x17d;" horiz-adv-x="263" 
d="M8 0v106l122 520h-122v95h247v-106l-118 -520h118v-95h-247zM-2 910l79 -1l54 -86l55 87h78l-77 -110h-112z" />
    <glyph glyph-name="zcaron" unicode="&#x17e;" horiz-adv-x="204" 
d="M8 508v75h189v-64l-71 -438h71v-81h-189v75l77 433h-77zM-31 737l79 -1l54 -86l55 87h78l-77 -110h-112z" />
    <glyph glyph-name="florin" unicode="&#x192;" horiz-adv-x="230" 
d="M-42 -116l8 65l18 1q21 3 24 28l56 525h-18l9 80h17l6 58q5 46 24 63t67 17h72l-9 -66l-17 -1q-24 0 -24 -28l-5 -43h39l-9 -80h-38l-57 -540q-4 -45 -23.5 -62t-67.5 -17h-72z" />
    <glyph glyph-name="circumflex" unicode="&#x2c6;" horiz-adv-x="269" 
d="M1 627l77 111h112l77 -111h-78l-55 89l-54 -89h-79z" />
    <glyph glyph-name="caron" unicode="&#x2c7;" horiz-adv-x="269" 
d="M1 737l79 -1l54 -86l55 87h78l-77 -110h-112z" />
    <glyph glyph-name="breve" unicode="&#x2d8;" horiz-adv-x="242" 
d="M1 745l56 -1q42 -72 64 -72q10 0 27.5 19.5t36.5 53.5h56q-19 -69 -41.5 -94.5t-64.5 -25.5l-14 1q-25 0 -39.5 3t-23.5 8q-34 22 -57 108z" />
    <glyph glyph-name="dotaccent" unicode="&#x2d9;" horiz-adv-x="121" 
d="M0 890h90l31 -124h-73z" />
    <glyph glyph-name="ring" unicode="&#x2da;" horiz-adv-x="114" 
d="M-10 689q0 28 19.5 48.5t46.5 20.5q29 0 48 -20t19 -49q0 -27 -19 -47t-47 -20q-29 0 -48 19t-19 48zM57 719q-11 0 -20 -9t-9 -21q0 -11 8 -19t20 -8q11 0 20 8t9 20t-8.5 20.5t-19.5 8.5z" />
    <glyph glyph-name="ogonek" unicode="&#x2db;" horiz-adv-x="360" 
d="M0 0v360l360 -360h-360z" />
    <glyph glyph-name="tilde" unicode="&#x2dc;" horiz-adv-x="252" 
d="M1 667q20 25 35.5 33.5t39.5 8.5q15 0 22.5 -1.5t37.5 -11.5q40 -11 53 -11q20 0 40 21l22 -31q-17 -26 -32.5 -36.5t-37.5 -10.5q-9 0 -22 2.5t-30 7.5q-27 8 -41 11.5t-25 3.5q-21 0 -40 -22z" />
    <glyph glyph-name="endash" unicode="&#x2013;" horiz-adv-x="337" 
d="M19 293v76h299v-76h-299z" />
    <glyph glyph-name="emdash" unicode="&#x2014;" horiz-adv-x="996" 
d="M30 297v119h936v-119h-936z" />
    <glyph glyph-name="quoteleft" unicode="&#x2018;" horiz-adv-x="194" 
d="M22 525l43 196h107l-43 -196h-107z" />
    <glyph glyph-name="quoteright" unicode="&#x2019;" horiz-adv-x="194" 
d="M22 526l44 195h106l-43 -195h-107z" />
    <glyph glyph-name="quotesinglbase" unicode="&#x201a;" horiz-adv-x="158" 
d="M-14 -80l43 195h107l-43 -195h-107z" />
    <glyph glyph-name="quotedblleft" unicode="&#x201c;" horiz-adv-x="323" 
d="M158 525l42 196h102l-43 -196h-101zM22 525l42 196h101l-42 -196h-101z" />
    <glyph glyph-name="quotedblright" unicode="&#x201d;" horiz-adv-x="323" 
d="M22 526l42 195h101l-42 -195h-101zM158 526l42 195h102l-43 -195h-101z" />
    <glyph glyph-name="quotedblbase" unicode="&#x201e;" horiz-adv-x="289" 
d="M-13 -80l42 195h102l-41 -195h-103zM123 -80l42 195h102l-42 -195h-102z" />
    <glyph glyph-name="dagger" unicode="&#x2020;" horiz-adv-x="385" 
d="M22 425v118h107v178h128v-177h106v-119h-107v-606h-128v606h-106z" />
    <glyph glyph-name="daggerdbl" unicode="&#x2021;" horiz-adv-x="344" 
d="M0 178v111h107v142h-105v111h105v179h130v-179l107 -1v-110h-108v-142l106 -1v-110h-106v-355h-130v355h-106z" />
    <glyph glyph-name="bullet" unicode="&#x2022;" horiz-adv-x="186" 
d="M36 270v115h114v-115h-114z" />
    <glyph glyph-name="ellipsis" unicode="&#x2026;" horiz-adv-x="996" 
d="M96 72q0 36 25 59q25 25 59 25t59 -24.5t25 -59.5t-25 -59q-24 -25 -59 -25t-59 25q-25 23 -25 59zM429 72q0 35 25.5 59.5t58.5 24.5q34 0 59 -24.5t25 -59.5t-25 -59q-24 -25 -59 -25t-59.5 24.5t-24.5 59.5zM749 72q0 35 24.5 59.5t59.5 24.5t59.5 -24.5t24.5 -59.5
t-24.5 -59.5t-59.5 -24.5q-36 0 -60 24t-24 60z" />
    <glyph glyph-name="perthousand" unicode="&#x2030;" horiz-adv-x="774" 
d="M191 0l117 721h60l-109 -721h-68zM217 357q0 -20 -11.5 -38.5t-29.5 -24.5q-6 -2 -14.5 -3t-35.5 -5h-9q-82 0 -82 71v300q0 71 89 71q93 0 93 -70v-301zM528 61q0 -21 -12 -39.5t-30 -23.5q-4 -1 -19 -4t-30 -3l-10 -1q-81 0 -81 71v300q0 27 11.5 43.5t28.5 21.5t58 5
q84 0 84 -68v-302zM739 61q0 -20 -12 -39t-29 -24q-4 -1 -20 -4t-30 -3l-9 -1q-82 0 -82 71v300q0 38 20.5 54t68.5 16q93 0 93 -68v-302zM437 48q15 0 15 10v305q0 12 -14 12q-16 0 -16 -13v-304q0 -10 15 -10zM126 344q15 0 15 10v305q0 12 -13 12q-7 0 -12 -4t-5 -9v-304
q0 -10 15 -10zM649 48q14 0 14 10v305q0 12 -13 12q-16 0 -16 -13v-304q0 -10 15 -10z" />
    <glyph glyph-name="guilsinglleft" unicode="&#x2039;" horiz-adv-x="264" 
d="M22 293l102 215h118l-104 -214l104 -214h-116z" />
    <glyph glyph-name="guilsinglright" unicode="&#x203a;" horiz-adv-x="264" 
d="M22 81l103 214l-103 213h115l105 -213l-103 -214h-117z" />
    <glyph glyph-name="trademark" unicode="&#x2122;" horiz-adv-x="773" 
d="M38 662v58h219v-59l-77 1v-302h-66v302h-76zM245 360l64 365h51l83 -203q6 -15 12 -34t6 -41l2 21q4 25 16 54l83 203h51l64 -365h-64l-33 201l-1 11l-1 12v41l-11 -41l-5 -16l-2 -6l-83 -206h-31l-84 206l-2 7l-5 15l-11 41q1 -5 1 -15.5v-15.5v-10l-1 -13l-2 -10
l-33 -201h-64z" />
    <glyph glyph-name="fraction" unicode="&#x2215;" horiz-adv-x="90" 
d="M-40 0l92 721h77l-92 -721h-77z" />
    <glyph glyph-name="fi" unicode="&#xf001;" horiz-adv-x="337" 
d="M29 266l74 72l-73 73l66 66l73 -73l72 73l66 -66l-72 -73l73 -72l-67 -66l-72 74l-74 -74z" />
    <glyph glyph-name="fl" unicode="&#xf002;" horiz-adv-x="215" 
d="M8 469v97q20 11 30 22t20.5 34t15.5 44.5t5 54.5h115v-721h-129v469h-57z" />
    </font>
</defs>
</svg>
