<?xml version="1.0" standalone="no"?>
<!DOCTYPE svg PUBLIC "-//W3C//DTD SVG 1.1//EN" "http://www.w3.org/Graphics/SVG/1.1/DTD/svg11.dtd" >
<svg xmlns="http://www.w3.org/2000/svg" xmlns:xlink="http://www.w3.org/1999/xlink" version="1.1">
<metadata>
Created by FontForge 20170731 at Mon Sep 27 10:42:09 2021
 By Aleksey,,,
Copyright 2020 The Open Sans Project Authors (https://github.com/googlefonts/opensans)
</metadata>
<defs>
<font id="OpenSansCondensed-Bold" horiz-adv-x="0" >
  <font-face 
    font-family="Open Sans Condensed"
    font-weight="700"
    font-stretch="condensed"
    units-per-em="2048"
    panose-1="0 0 0 0 0 0 0 0 0 0"
    ascent="1638"
    descent="-410"
    x-height="1120"
    cap-height="1462"
    bbox="-1124 -651 2187 2232"
    underline-thickness="50"
    underline-position="-175"
    unicode-range="U+000D-FFFD"
  />
<missing-glyph horiz-adv-x="1229" 
 />
    <glyph glyph-name="f_f" unicode="ff" horiz-adv-x="1221" 
d="M592 899h-180v-899h-267v899h-129v143l129 78v35q0 142 29 233t93.5 135t168.5 44q59 0 106.5 -10.5t110.5 -34.5l-57 -201q-28 9 -53 14.5t-51 5.5q-43 0 -61.5 -37.5t-18.5 -129.5v-54h180v-221zM1202 899h-180v-899h-267v899h-129v143l129 78v35q0 142 29 233
t93.5 135t168.5 44q59 0 106.5 -10.5t110.5 -34.5l-57 -201q-28 9 -53 14.5t-51 5.5q-43 0 -61.5 -37.5t-18.5 -129.5v-54h180v-221z" />
    <glyph glyph-name="fi" unicode="fi" horiz-adv-x="1110" 
d="M592 899h-180v-899h-267v899h-129v143l129 78v35q0 142 29 233t93.5 135t168.5 44q59 0 106.5 -10.5t110.5 -34.5l-57 -201q-28 9 -53 14.5t-51 5.5q-43 0 -61.5 -37.5t-18.5 -129.5v-54h180v-221zM994 1120v-1120h-266v1120h266zM861 1561q75 0 110 -39.5t35 -114.5
q0 -73 -36.5 -111.5t-108.5 -38.5q-70 0 -108 38.5t-38 111.5q0 77 35.5 115.5t110.5 38.5z" />
    <glyph glyph-name="fl" unicode="fl" horiz-adv-x="1106" 
d="M592 899h-180v-899h-267v899h-129v143l129 78v35q0 142 29 233t93.5 135t168.5 44q59 0 106.5 -10.5t110.5 -34.5l-57 -201q-28 9 -53 14.5t-51 5.5q-43 0 -61.5 -37.5t-18.5 -129.5v-54h180v-221zM992 0h-266v1556h266v-1556z" />
    <glyph glyph-name="f_f_i" unicode="ffi" horiz-adv-x="1720" 
d="M592 899h-180v-899h-267v899h-129v143l129 78v35q0 142 29 233t93.5 135t168.5 44q59 0 106.5 -10.5t110.5 -34.5l-57 -201q-28 9 -53 14.5t-51 5.5q-43 0 -61.5 -37.5t-18.5 -129.5v-54h180v-221zM1203 899h-180v-899h-267v899h-129v143l129 78v35q0 142 29 233
t93.5 135t168.5 44q59 0 106.5 -10.5t110.5 -34.5l-57 -201q-28 9 -53 14.5t-51 5.5q-43 0 -61.5 -37.5t-18.5 -129.5v-54h180v-221zM1603 1120v-1120h-266v1120h266zM1470 1561q75 0 110 -39.5t35 -114.5q0 -73 -36.5 -111.5t-108.5 -38.5q-70 0 -108 38.5t-38 111.5
q0 77 35.5 115.5t110.5 38.5z" />
    <glyph glyph-name="f_f_l" unicode="ffl" horiz-adv-x="1716" 
d="M592 899h-180v-899h-267v899h-129v143l129 78v35q0 142 29 233t93.5 135t168.5 44q59 0 106.5 -10.5t110.5 -34.5l-57 -201q-28 9 -53 14.5t-51 5.5q-43 0 -61.5 -37.5t-18.5 -129.5v-54h180v-221zM1203 899h-180v-899h-267v899h-129v143l129 78v35q0 142 29 233
t93.5 135t168.5 44q59 0 106.5 -10.5t110.5 -34.5l-57 -201q-28 9 -53 14.5t-51 5.5q-43 0 -61.5 -37.5t-18.5 -129.5v-54h180v-221zM1601 0h-266v1556h266v-1556z" />
    <glyph glyph-name=".notdef" horiz-adv-x="1229" 
 />
    <glyph glyph-name=".null" 
 />
    <glyph glyph-name="nonmarkingreturn" horiz-adv-x="682" 
 />
    <glyph glyph-name="NULL" 
 />
    <glyph glyph-name="NULL" 
 />
    <glyph glyph-name="CR" unicode="&#xd;" horiz-adv-x="367" 
 />
    <glyph glyph-name="space" unicode=" " horiz-adv-x="367" 
 />
    <glyph glyph-name="exclam" unicode="!" horiz-adv-x="526" 
d="M375 475h-223l-46 987h312zM104 145q0 82 40.5 125t119.5 43q74 0 115 -42.5t41 -125.5q0 -81 -42.5 -124.5t-113.5 -43.5q-75 0 -117.5 43.5t-42.5 124.5z" />
    <glyph glyph-name="quotedbl" unicode="&#x22;" horiz-adv-x="907" 
d="M387 1462l-39 -528h-215l-39 528h293zM813 1462l-39 -528h-215l-39 528h293z" />
    <glyph glyph-name="numbersign" unicode="#" horiz-adv-x="1049" 
d="M819 866l-35 -260h185v-194h-209l-55 -412h-199l57 412h-157l-54 -412h-194l53 412h-170v194h197l34 260h-184v199h211l55 397h195l-55 -397h157l54 397h194l-55 -397h174v-199h-199zM434 606h156l35 260h-156z" />
    <glyph glyph-name="dollar" unicode="$" horiz-adv-x="961" 
d="M422 -119v203q-85 3 -170 23.5t-156 54.5v244q68 -45 155.5 -79.5t170.5 -37.5v366q-113 45 -187.5 98.5t-110.5 125t-36 168.5q0 104 42.5 179t118 120t173.5 57v151h129v-149q75 -4 151 -26t146 -60l-62 -203q-55 31 -115 49.5t-120 24.5v-350q111 -43 182.5 -92.5
t106 -116.5t34.5 -162q0 -146 -84 -248t-239 -131v-209h-129zM551 305q57 17 84 56t27 90q0 35 -12.5 61.5t-37 48t-61.5 39.5v-295zM422 895v293q-41 -8 -66.5 -28t-37 -50t-11.5 -68q0 -34 11.5 -59.5t37 -46t66.5 -41.5z" />
    <glyph glyph-name="percent" unicode="%" horiz-adv-x="1579" 
d="M350 1483q135 0 214 -121.5t79 -335.5q0 -220 -76.5 -340.5t-216.5 -120.5q-135 0 -212 123.5t-77 337.5q0 220 75.5 338.5t213.5 118.5zM352 1294q-41 0 -61.5 -66.5t-20.5 -203.5q0 -139 20.5 -205.5t63.5 -66.5q42 0 61 65.5t19 206.5q0 138 -20 204t-62 66z
M1171 1462l-565 -1462h-203l566 1462h202zM1225 899q135 0 214 -121.5t79 -335.5q0 -219 -76.5 -339.5t-216.5 -120.5q-137 0 -213 124.5t-76 335.5q0 223 75 340t214 117zM1225 713q-42 0 -61 -68t-19 -205q0 -138 19.5 -204t62.5 -66q44 0 62 71.5t18 198.5
q0 128 -19 200.5t-63 72.5z" />
    <glyph glyph-name="ampersand" unicode="&#x26;" horiz-adv-x="1184" 
d="M508 1481q106 0 179 -40t111 -114t38 -178q0 -115 -53.5 -208t-151.5 -171l164 -242q21 47 35.5 108t23.5 136h281q-16 -120 -56.5 -245.5t-105.5 -231.5l219 -295h-338l-72 111q-49 -42 -102.5 -71t-115.5 -44.5t-138 -15.5q-125 0 -208.5 51.5t-125 144t-41.5 215.5
q0 88 26 161.5t79 135.5t135 113q-41 57 -68 111t-40 112.5t-13 126.5q0 100 42 174t118 115t178 41zM418 633q-33 -30 -53 -63.5t-29.5 -73t-9.5 -88.5q0 -80 38 -134.5t105 -54.5q53 0 92 23t76 67zM506 1282q-37 0 -60.5 -32.5t-23.5 -98.5q0 -49 19.5 -106t56.5 -107
q47 41 69.5 99.5t22.5 121.5q0 62 -23 92.5t-61 30.5z" />
    <glyph glyph-name="quotesingle" unicode="'" horiz-adv-x="481" 
d="M387 1462l-39 -528h-215l-39 528h293z" />
    <glyph glyph-name="parenleft" unicode="(" horiz-adv-x="639" 
d="M92 575q0 186 35 351t98 307.5t146 257.5h243q-133 -199 -198.5 -427t-65.5 -486q0 -167 30.5 -321.5t89 -298.5t142.5 -282h-241q-86 118 -148.5 256.5t-96.5 299t-34 343.5z" />
    <glyph glyph-name="parenright" unicode=")" horiz-adv-x="639" 
d="M549 575q0 -182 -34.5 -343t-98 -300t-150.5 -256h-239q84 139 142.5 283t89 298t30.5 321q0 173 -29 331.5t-87 303.5t-146 278h239q85 -115 148.5 -257.5t99 -308t35.5 -350.5z" />
    <glyph glyph-name="asterisk" unicode="*" horiz-adv-x="911" 
d="M582 1561l-37 -291l264 96l57 -236l-268 -30l199 -226l-205 -139l-137 262l-140 -264l-202 141l196 226l-266 28l55 238l267 -96l-35 291h252z" />
    <glyph glyph-name="plus" unicode="+" horiz-adv-x="969" 
d="M596 831h305v-217h-305v-381h-221v381h-307v217h307v386h221v-386z" />
    <glyph glyph-name="comma" unicode="," horiz-adv-x="522" 
d="M414 272l12 -22q-17 -102 -38.5 -194.5t-46.5 -176t-56 -158.5h-217q17 80 34 180t30 198.5t18 172.5h264z" />
    <glyph glyph-name="hyphen" unicode="-" horiz-adv-x="625" 
d="M57 422v256h510v-256h-510z" />
    <glyph glyph-name="period" unicode="." horiz-adv-x="522" 
d="M104 145q0 82 41 125t119 43q74 0 115 -42.5t41 -125.5q0 -81 -42 -124.5t-114 -43.5q-73 0 -116.5 43.5t-43.5 124.5z" />
    <glyph glyph-name="slash" unicode="/" horiz-adv-x="827" 
d="M813 1477l-557 -1491h-238l560 1491h235z" />
    <glyph glyph-name="zero" unicode="0" horiz-adv-x="961" 
d="M883 731q0 -166 -19.5 -303.5t-65.5 -238t-124 -155t-195 -54.5q-132 0 -221.5 77t-135.5 242.5t-46 431.5q0 257 44 423.5t133.5 247.5t225.5 81q135 0 224.5 -84t134.5 -251t45 -417zM352 731q0 -174 11.5 -286.5t39 -167t76.5 -54.5q50 0 77.5 54.5t38.5 167t11 286.5
q0 169 -11 282t-38.5 169.5t-77.5 56.5q-48 0 -76 -56t-39.5 -169t-11.5 -283z" />
    <glyph glyph-name="one" unicode="1" horiz-adv-x="961" 
d="M733 0h-274v854q0 46 0.5 90.5t2 88t3.5 85.5q-14 -19 -33 -43t-45 -53l-127 -131l-164 162l393 409h244v-1462z" />
    <glyph glyph-name="two" unicode="2" horiz-adv-x="961" 
d="M856 0h-797v199l281 391q90 125 137 207.5t63.5 146t16.5 129.5q0 77 -36.5 122.5t-108.5 45.5q-57 0 -108 -30t-114 -107l-135 182q61 72 120.5 115.5t125.5 62.5t143 19q116 0 204 -49.5t137 -137.5t49 -206q0 -97 -23 -184.5t-78 -182.5t-151 -215l-195 -256v-10h469
v-242z" />
    <glyph glyph-name="three" unicode="3" horiz-adv-x="961" 
d="M842 1112q0 -79 -28 -146t-83.5 -117.5t-136.5 -80.5v-6q137 -29 206.5 -118t69.5 -232q0 -132 -55.5 -229t-159.5 -150t-249 -53q-95 0 -173 14.5t-165 54.5v258q75 -44 151 -67t146 -23q112 0 164.5 54.5t52.5 152.5q0 73 -28.5 119.5t-88.5 69t-156 22.5h-73v231h75
q85 0 143 25.5t87.5 74t29.5 115.5q0 80 -41.5 122t-121.5 42q-40 0 -78 -11t-76 -32.5t-78 -54.5l-108 201q90 74 182.5 104.5t210.5 30.5q176 0 278.5 -95.5t102.5 -275.5z" />
    <glyph glyph-name="four" unicode="4" horiz-adv-x="961" 
d="M936 297h-148v-297h-270v297h-483v221l481 948h272v-942h148v-227zM516 524v338q0 15 0.5 47.5t1.5 69t2 65.5t2 39h-8q-13 -44 -29 -83t-34 -74l-193 -402h258z" />
    <glyph glyph-name="five" unicode="5" horiz-adv-x="961" 
d="M516 936q106 0 185.5 -57.5t124 -160t44.5 -237.5q0 -157 -52 -269.5t-156 -172t-261 -59.5q-90 0 -164.5 17t-136.5 52v256q65 -38 139.5 -63t143.5 -25t115 32t69 89t23 133q0 113 -53.5 172t-157.5 59q-40 0 -83 -8.5t-87 -25.5l-92 69l43 725h635v-243h-404l-20 -301
q44 11 80 14.5t65 3.5z" />
    <glyph glyph-name="six" unicode="6" horiz-adv-x="961" 
d="M76 621q0 144 16.5 273.5t54.5 237t102 186.5t158 122t224 43q49 0 96.5 -4.5t91.5 -14.5v-235q-38 9 -79.5 14.5t-86.5 5.5q-102 0 -171 -49.5t-106 -151.5t-42 -260h8q23 55 56 92t76.5 56.5t96.5 19.5q103 0 174 -59t108.5 -164.5t37.5 -247.5q0 -150 -46 -264
t-134 -177.5t-215 -63.5q-99 0 -177 43t-132.5 125.5t-82.5 201.5t-28 271zM489 219q59 0 93 64t34 196q0 120 -31 181t-93 61q-43 0 -74 -27.5t-47.5 -73.5t-16.5 -102t8 -109t25 -96t42.5 -68.5t59.5 -25.5z" />
    <glyph glyph-name="seven" unicode="7" horiz-adv-x="961" 
d="M178 0l428 1219h-536v243h817v-190l-418 -1272h-291z" />
    <glyph glyph-name="eight" unicode="8" horiz-adv-x="961" 
d="M481 1483q121 0 205.5 -42t129 -120t44.5 -188q0 -79 -22.5 -145.5t-69 -121t-119.5 -98.5q84 -58 138.5 -117t81 -125t26.5 -145q0 -124 -50 -214t-143 -138.5t-221 -48.5q-134 0 -227.5 47t-142 135.5t-48.5 212.5q0 81 24 150.5t74.5 129t129.5 109.5
q-65 52 -107.5 110t-63 122.5t-20.5 136.5q0 110 46.5 188t132 120t202.5 42zM328 379q0 -80 38 -129t111 -49q79 0 117.5 47.5t38.5 130.5q0 39 -12 76.5t-41 75t-80 77.5l-29 23q-52 -38 -83.5 -76.5t-45.5 -81.5t-14 -94zM481 1262q-53 0 -86 -40.5t-33 -109.5
q0 -43 13 -79t39 -68t65 -62q46 34 73 66.5t38.5 67t11.5 75.5q0 69 -33.5 109.5t-87.5 40.5z" />
    <glyph glyph-name="nine" unicode="9" horiz-adv-x="961" 
d="M883 850q0 -149 -18.5 -281t-58.5 -240t-105 -186t-158 -120.5t-217 -42.5q-48 0 -97.5 5.5t-91.5 14.5v236q37 -11 79.5 -17t86.5 -6q110 0 179.5 56.5t104.5 160t40 244.5h-11q-23 -54 -56.5 -91.5t-76.5 -57t-96 -19.5q-104 0 -175.5 59t-107.5 165.5t-36 246.5
q0 151 46 264.5t135 177.5t218 64q98 0 175.5 -42.5t131 -124.5t81.5 -199t28 -267zM469 1243q-57 0 -93 -64t-36 -196q0 -120 32 -181t95 -61q49 0 79 33t44 81.5t14 94.5q0 35 -5 84.5t-19 97t-40.5 79.5t-70.5 32z" />
    <glyph glyph-name="colon" unicode=":" horiz-adv-x="532" 
d="M109 145q0 82 40.5 125t118.5 43q74 0 114 -42.5t40 -125.5q0 -81 -41.5 -124.5t-112.5 -43.5q-75 0 -117 43.5t-42 124.5zM109 963q0 81 40.5 125.5t118.5 44.5q76 0 115 -44.5t39 -125.5q0 -82 -41.5 -125t-112.5 -43q-75 0 -117 44t-42 124z" />
    <glyph glyph-name="semicolon" unicode=";" horiz-adv-x="532" 
d="M414 272l12 -22q-17 -102 -38.5 -194.5t-47 -176t-55.5 -158.5h-219q18 82 34.5 181t28.5 196.5t18 173.5h267zM109 963q0 81 40.5 125.5t118.5 44.5q76 0 115 -44.5t39 -125.5q0 -82 -41.5 -125t-112.5 -43q-75 0 -117 44t-42 124z" />
    <glyph glyph-name="less" unicode="&#x3c;" horiz-adv-x="969" 
d="M901 246l-842 418v143l842 416v-244l-530 -244l530 -248v-241z" />
    <glyph glyph-name="equal" unicode="=" horiz-adv-x="969" 
d="M68 838v217h833v-217h-833zM68 387v219h833v-219h-833z" />
    <glyph glyph-name="greater" unicode="&#x3e;" horiz-adv-x="969" 
d="M66 487l530 248l-530 244v244l841 -416v-143l-841 -418v241z" />
    <glyph glyph-name="question" unicode="?" horiz-adv-x="756" 
d="M213 475v76q0 68 12.5 120t40.5 98t74 95q44 47 70.5 84.5t38.5 74.5t12 83q0 68 -33 102.5t-98 34.5q-55 0 -111 -24t-119 -68l-90 209q85 62 170 92.5t172 30.5q182 0 276.5 -94t94.5 -259q0 -88 -20.5 -153.5t-60.5 -121.5t-101 -118q-47 -48 -70 -81t-30 -63.5
t-7 -70.5v-47h-221zM166 145q0 82 40.5 125t119.5 43q74 0 114.5 -42.5t40.5 -125.5q0 -81 -41.5 -124.5t-113.5 -43.5q-74 0 -117 43.5t-43 124.5z" />
    <glyph glyph-name="at" unicode="@" horiz-adv-x="1479" 
d="M1399 750q0 -117 -22 -212t-61.5 -163.5t-94.5 -105t-121 -36.5q-82 0 -131 41t-68 117h-12q-35 -81 -83.5 -119.5t-111.5 -38.5q-129 0 -199.5 103t-70.5 289q0 144 43.5 251t125.5 165.5t195 58.5q60 0 128 -14.5t126 -38.5l-16 -424q-1 -29 -2.5 -60t-1.5 -57
q0 -54 18 -80.5t50 -26.5q36 0 61.5 35t39 113t13.5 207q1 164 -49 290.5t-147.5 198t-239.5 70.5q-124 0 -216 -55.5t-153.5 -152.5t-92 -223.5t-30.5 -269.5q0 -181 52 -317.5t156.5 -212.5t263.5 -76q89 0 187 24t183 64v-178q-82 -38 -173 -58t-195 -20q-214 0 -363 91
t-227 262t-78 411q0 201 49.5 363.5t140.5 277.5t217 176t279 60q193 0 334.5 -93.5t219 -258t77.5 -377.5zM629 623q0 -115 24.5 -169.5t67.5 -54.5q47 0 71 71.5t33 248.5l11 209q-14 5 -27 6.5t-27 1.5q-47 0 -81.5 -37t-53 -107t-18.5 -169z" />
    <glyph glyph-name="A" unicode="A" horiz-adv-x="1077" 
d="M778 0l-76 352h-325l-76 -352h-301l354 1462h363l360 -1462h-299zM659 596l-79 387q-8 48 -15.5 94t-14 88.5t-11.5 79.5q-3 -35 -9 -77t-14 -88t-18 -93l-78 -391h239z" />
    <glyph glyph-name="B" unicode="B" horiz-adv-x="1079" 
d="M131 1462h385q226 0 338.5 -88.5t112.5 -271.5q0 -86 -23.5 -153.5t-67.5 -111.5t-106 -61v-10q78 -21 127.5 -66t72.5 -114t23 -162q0 -130 -51.5 -225t-148.5 -147t-232 -52h-430v1462zM412 870h104q85 0 126.5 49t41.5 144q0 83 -43 126.5t-129 43.5h-100v-363z
M412 647v-411h127q84 0 126 52t42 158q0 65 -21 109.5t-60.5 68t-97.5 23.5h-116z" />
    <glyph glyph-name="C" unicode="C" horiz-adv-x="989" 
d="M633 1241q-64 0 -112 -38t-79.5 -107.5t-47 -163.5t-15.5 -205q0 -163 31 -275.5t91 -170.5t146 -58q68 0 129 23t121 55v-250q-63 -35 -135.5 -53t-155.5 -18q-165 0 -280.5 87.5t-176.5 255t-61 406.5q0 164 34.5 301.5t101.5 239t164.5 157.5t223.5 56q88 0 170 -22
t158 -68l-80 -232q-54 37 -109 58.5t-118 21.5z" />
    <glyph glyph-name="D" unicode="D" horiz-adv-x="1145" 
d="M1057 758q0 -245 -67.5 -414t-197 -256.5t-317.5 -87.5h-344v1462h365q180 0 305.5 -81t190.5 -238t65 -385zM768 745q0 164 -31 269t-92.5 155t-152.5 50h-80v-973h61q152 0 223.5 123t71.5 376z" />
    <glyph glyph-name="E" unicode="E" horiz-adv-x="874" 
d="M788 0h-657v1462h657v-239h-376v-344h350v-240h-350v-395h376v-244z" />
    <glyph glyph-name="F" unicode="F" horiz-adv-x="848" 
d="M412 0h-281v1462h653v-239h-372v-398h348v-239h-348v-586z" />
    <glyph glyph-name="G" unicode="G" horiz-adv-x="1176" 
d="M614 823h457v-762q-104 -41 -213.5 -61t-222.5 -20q-181 0 -302.5 92.5t-183 261.5t-61.5 401q0 229 69.5 396.5t203.5 259.5t327 92q106 0 198 -25.5t165 -66.5l-82 -232q-63 40 -130.5 61t-140.5 21q-105 0 -176 -59.5t-107 -174t-36 -280.5q0 -153 29.5 -266.5
t90 -175.5t154.5 -62q39 0 75.5 6t68.5 17v340h-183v237z" />
    <glyph glyph-name="H" unicode="H" horiz-adv-x="1186" 
d="M1055 0h-281v639h-362v-639h-281v1462h281v-579h362v579h281v-1462z" />
    <glyph glyph-name="I" unicode="I" horiz-adv-x="543" 
d="M131 0v1462h281v-1462h-281z" />
    <glyph glyph-name="J" unicode="J" horiz-adv-x="541" 
d="M41 -434q-41 0 -81 5t-75 17v240q25 -9 53 -15t60 -6q50 0 79.5 23.5t42.5 79.5t13 153v1399h279v-1394q0 -190 -43 -300t-126 -156t-202 -46z" />
    <glyph glyph-name="K" unicode="K" horiz-adv-x="1047" 
d="M1061 0h-311l-248 596l-90 -82v-514h-281v1462h281v-674q9 39 32.5 87.5t55.5 109.5l256 477h301l-357 -651z" />
    <glyph glyph-name="L" unicode="L" horiz-adv-x="831" 
d="M131 0v1462h281v-1218h389v-244h-670z" />
    <glyph glyph-name="M" unicode="M" horiz-adv-x="1581" 
d="M676 0l-289 1079h-8q5 -67 8 -126t4.5 -109t1.5 -90v-754h-262v1462h387l270 -1001h7l270 1001h385v-1462h-268v756q0 45 1.5 94.5t4 106t6.5 120.5h-8l-291 -1077h-219z" />
    <glyph glyph-name="N" unicode="N" horiz-adv-x="1274" 
d="M1143 0h-330l-428 1020h-8q6 -71 9.5 -133.5t5 -114.5t1.5 -94v-678h-262v1462h328l426 -997h8q-4 69 -7 128.5t-5 110.5t-2 93v665h264v-1462z" />
    <glyph glyph-name="O" unicode="O" horiz-adv-x="1214" 
d="M1126 733q0 -174 -32 -313.5t-96 -237.5t-161.5 -150t-228.5 -52q-132 0 -230 52.5t-162 151.5t-96 238t-32 313q0 246 59 413t175 252t286 85q177 0 291.5 -91t170.5 -259.5t56 -401.5zM379 733q0 -168 26 -280.5t77 -169t126 -56.5q76 0 126.5 55t76 167t25.5 284
q0 257 -57 382.5t-171 125.5q-75 0 -126 -57t-77 -170t-26 -281z" />
    <glyph glyph-name="P" unicode="P" horiz-adv-x="1004" 
d="M502 1462q223 0 331.5 -115.5t108.5 -336.5q0 -111 -27.5 -201.5t-83.5 -155.5t-141 -100t-201 -35h-77v-518h-281v1462h371zM481 1223h-69v-465h49q67 0 112 25t68 80t23 145q0 112 -45.5 163.5t-137.5 51.5z" />
    <glyph glyph-name="Q" unicode="Q" horiz-adv-x="1214" 
d="M1126 733q0 -174 -29.5 -309t-87.5 -229.5t-143 -147.5l240 -395h-320l-178 330h-11h-13q-126 0 -219.5 56t-154.5 157t-91.5 239t-30.5 301q0 246 59 413t175 252t286 85q169 0 284.5 -85t174.5 -252.5t59 -414.5zM379 733q0 -168 26 -280.5t77 -169t126 -56.5
q76 0 126.5 55t76 167t25.5 284q0 257 -57 382.5t-171 125.5q-75 0 -126 -57t-77 -170t-26 -281z" />
    <glyph glyph-name="R" unicode="R" horiz-adv-x="1049" 
d="M471 1462q162 0 269 -47t159.5 -141t52.5 -236q0 -90 -22 -163.5t-68.5 -131t-118.5 -100.5l301 -643h-309l-239 573h-84v-573h-281v1462h340zM469 1225h-57v-430h63q94 0 142.5 57t48.5 172q0 103 -48.5 152t-148.5 49z" />
    <glyph glyph-name="S" unicode="S" horiz-adv-x="897" 
d="M836 428q0 -132 -53 -233t-149.5 -158t-227.5 -57q-61 0 -118 7.5t-112 25t-110 46.5v287q80 -52 166 -79t159 -27q54 0 89.5 21t53 57t17.5 81q0 48 -15 84.5t-57.5 73t-124.5 84.5q-64 38 -115.5 78t-88 88.5t-55.5 112.5t-19 151q-1 124 48.5 217t143 144.5
t224.5 50.5q89 0 174.5 -24t164.5 -68l-77 -248q-71 43 -134 63.5t-118 20.5q-48 0 -80.5 -18.5t-49 -50.5t-16.5 -73q0 -52 16 -88t60.5 -70.5t128.5 -82.5q91 -53 152 -112.5t92 -133t31 -170.5z" />
    <glyph glyph-name="T" unicode="T" horiz-adv-x="879" 
d="M578 0h-277v1219h-272v243h819v-243h-270v-1219z" />
    <glyph glyph-name="U" unicode="U" horiz-adv-x="1151" 
d="M1028 1462v-981q0 -168 -52 -279t-153 -166.5t-250 -55.5q-217 0 -333.5 122.5t-116.5 372.5v987h280v-977q0 -139 44 -198.5t128 -59.5q59 0 97.5 25.5t58 82.5t19.5 152v975h278z" />
    <glyph glyph-name="V" unicode="V" horiz-adv-x="1051" 
d="M1051 1462l-365 -1462h-324l-362 1462h293l176 -825q10 -46 21 -107.5t20 -122t14 -104.5q6 44 15.5 104.5t21 121.5t21.5 108l178 825h291z" />
    <glyph glyph-name="W" unicode="W" horiz-adv-x="1587" 
d="M1583 1462l-287 -1462h-321l-135 696q-6 36 -12.5 77t-13 86t-11.5 93.5t-10 100.5q-4 -39 -9 -83.5t-11 -91t-13 -92.5t-15 -88l-135 -698h-319l-289 1462h274l134 -739q8 -44 15.5 -94.5t15 -103.5t14 -104t10.5 -95q6 51 13.5 105t16 106t16.5 98.5t15 83.5l150 743
h235l140 -741q8 -40 16.5 -87.5t16.5 -99.5t15 -104.5t13 -103.5q5 60 14 128t19.5 137.5t21.5 131.5l136 739h280z" />
    <glyph glyph-name="X" unicode="X" horiz-adv-x="969" 
d="M967 0h-301l-181 489l-190 -489h-293l324 743l-297 719h290l160 -461l158 461h295l-293 -717z" />
    <glyph glyph-name="Y" unicode="Y" horiz-adv-x="971" 
d="M487 868l195 594h289l-346 -899v-563h-279v555l-346 907h291z" />
    <glyph glyph-name="Z" unicode="Z" horiz-adv-x="877" 
d="M834 0h-787v201l473 1020h-465v241h766v-200l-473 -1018h486v-244z" />
    <glyph glyph-name="bracketleft" unicode="[" horiz-adv-x="627" 
d="M582 -338h-473v1829h473v-209h-224v-1411h224v-209z" />
    <glyph glyph-name="backslash" unicode="\" horiz-adv-x="827" 
d="M254 1477l557 -1491h-238l-557 1491h238z" />
    <glyph glyph-name="bracketright" unicode="]" horiz-adv-x="627" 
d="M47 -129h223v1411h-223v209h471v-1829h-471v209z" />
    <glyph glyph-name="asciicircum" unicode="^" horiz-adv-x="1028" 
d="M18 567l424 895h142l426 -895h-246l-250 539l-250 -539h-246z" />
    <glyph glyph-name="underscore" unicode="_" horiz-adv-x="973" 
d="M977 -348h-981v201h981v-201z" />
    <glyph glyph-name="grave" unicode="`" horiz-adv-x="637" 
d="M387 1569q19 -43 50 -101.5t63.5 -113t54.5 -86.5v-27h-190q-27 24 -66.5 64t-82 86t-78.5 88.5t-56 70.5v19h305z" />
    <glyph glyph-name="a" unicode="a" horiz-adv-x="950" 
d="M504 1141q163 0 248.5 -100.5t85.5 -299.5v-741h-195l-43 150h-6q-34 -57 -72.5 -95t-87.5 -56.5t-115 -18.5q-93 0 -150.5 50t-83.5 130t-26 170q0 175 97 265t276 97l139 6v45q0 92 -28.5 137.5t-93.5 45.5q-48 0 -105 -19t-125 -59l-74 199q76 46 167 70t192 24z
M571 520l-75 -4q-85 -4 -126.5 -47.5t-41.5 -126.5q0 -75 25.5 -112t74.5 -37q63 0 103 61t40 164v102z" />
    <glyph glyph-name="b" unicode="b" horiz-adv-x="1024" 
d="M381 1556v-389q0 -32 -1.5 -79.5t-6.5 -112.5h10q44 86 105.5 125t138.5 39q152 0 237.5 -151t85.5 -425q0 -182 -38.5 -312.5t-111.5 -200.5t-177 -70q-76 0 -131 30.5t-109 110.5h-14l-39 -121h-215v1556h266zM537 909q-59 0 -93.5 -37.5t-48.5 -108t-14 -171.5v-55
q0 -172 38 -252t120 -80q69 0 105 88t36 272q0 173 -34.5 258.5t-108.5 85.5z" />
    <glyph glyph-name="c" unicode="c" horiz-adv-x="817" 
d="M494 -20q-140 0 -233.5 62.5t-140 190t-46.5 322.5q0 170 45 302.5t139 208t240 75.5q83 0 149.5 -18.5t124.5 -55.5l-74 -213q-46 28 -90.5 41.5t-89.5 13.5q-55 0 -94 -40.5t-59.5 -119t-20.5 -194.5q0 -115 20.5 -192t60 -115.5t97.5 -38.5q57 0 115 21t113 61v-228
q-54 -43 -120.5 -63t-135.5 -20z" />
    <glyph glyph-name="d" unicode="d" horiz-adv-x="1024" 
d="M406 -20q-162 0 -247 154t-85 427q0 274 85 427t238 153q52 0 96.5 -18t82 -54.5t65.5 -91.5h10q-3 65 -5.5 111.5t-2.5 78.5v389h266v-1556h-213l-37 123h-16q-32 -50 -66.5 -81.5t-75.5 -46.5t-95 -15zM485 203q80 0 119 78t39 245v64q0 166 -37.5 242.5t-120.5 76.5
q-72 0 -106.5 -87.5t-34.5 -258.5q0 -181 36 -270.5t105 -89.5z" />
    <glyph glyph-name="e" unicode="e" horiz-adv-x="936" 
d="M479 1139q126 0 213.5 -62t132.5 -175.5t45 -268.5v-150h-534q2 -147 54 -216.5t159 -69.5q71 0 134.5 18.5t135.5 63.5v-222q-67 -40 -143 -58.5t-164 -18.5q-154 0 -251 69.5t-142 198t-45 305.5q0 189 45.5 319.5t135.5 198.5t224 68zM485 930q-66 0 -105 -59.5
t-42 -194.5h285q0 79 -16 136t-47 87.5t-75 30.5z" />
    <glyph glyph-name="f" unicode="f" horiz-adv-x="610" 
d="M592 899h-180v-899h-267v899h-129v143l129 78v35q0 142 29 233t93.5 135t168.5 44q59 0 106.5 -10.5t110.5 -34.5l-57 -201q-28 9 -53 14.5t-51 5.5q-43 0 -61.5 -37.5t-18.5 -129.5v-54h180v-221z" />
    <glyph glyph-name="g" unicode="g" horiz-adv-x="938" 
d="M402 -492q-186 0 -288 82t-102 232q0 98 56.5 168t149.5 96q-47 20 -78 62.5t-31 98.5q0 64 28.5 106t77.5 86q-63 41 -101 128t-38 191q0 120 43.5 205t127 129.5t203.5 44.5q37 0 64.5 -3.5t48 -9t35.5 -11.5h324v-160l-132 -29q19 -37 27 -78t8 -90q0 -180 -97 -279
t-275 -99q-55 0 -81 9q-16 -15 -30.5 -36t-14.5 -53q0 -24 12.5 -40.5t38.5 -24.5t65 -8h186q134 0 206 -75t72 -229q0 -199 -128.5 -306t-376.5 -107zM421 -293q81 0 133 20t77 58.5t25 93.5q0 44 -13 66.5t-44.5 31t-86.5 8.5h-146q-31 0 -55 -15.5t-37 -46.5t-13 -80
q0 -67 43 -101.5t117 -34.5zM452 563q51 0 78 49t27 144q0 101 -27 149.5t-79 48.5t-79 -49.5t-27 -147.5q0 -95 26 -144.5t81 -49.5z" />
    <glyph glyph-name="h" unicode="h" horiz-adv-x="1026" 
d="M381 1556v-346q0 -60 -5 -118.5t-16 -114.5h17q22 53 57 89.5t81.5 55.5t102.5 19q97 0 162.5 -46.5t99 -136.5t33.5 -219v-739h-266v664q0 122 -26 179.5t-82 57.5q-60 0 -94.5 -38.5t-49 -118.5t-14.5 -205v-539h-266v1556h266z" />
    <glyph glyph-name="i" unicode="i" horiz-adv-x="500" 
d="M383 1120v-1120h-266v1120h266zM250 1561q75 0 110 -39.5t35 -114.5q0 -73 -36.5 -111.5t-108.5 -38.5q-70 0 -108 38.5t-38 111.5q0 77 35.5 115.5t110.5 38.5z" />
    <glyph glyph-name="j" unicode="j" horiz-adv-x="500" 
d="M86 -492q-37 0 -73 5.5t-70 17.5v229q21 -9 42.5 -13.5t41.5 -4.5q46 0 68 37.5t22 114.5v1226h266v-1241q0 -127 -35 -208.5t-101.5 -121t-160.5 -41.5zM104 1407q0 77 35.5 115.5t110.5 38.5t110 -39.5t35 -114.5q0 -73 -36.5 -111.5t-108.5 -38.5q-70 0 -108 38.5
t-38 111.5z" />
    <glyph glyph-name="k" unicode="k" horiz-adv-x="969" 
d="M381 1556v-677q0 -71 -2 -139t-10 -134h8q18 44 39.5 82.5t38.5 69.5l217 362h286l-290 -458l305 -662h-291l-197 463l-104 -103v-360h-266v1556h266z" />
    <glyph glyph-name="l" unicode="l" horiz-adv-x="496" 
d="M381 0h-266v1556h266v-1556z" />
    <glyph glyph-name="m" unicode="m" horiz-adv-x="1530" 
d="M1135 1141q143 0 213.5 -99.5t70.5 -304.5v-737h-266v659q0 125 -27.5 184.5t-83.5 59.5q-79 0 -110 -83t-31 -253v-567h-268v662q0 83 -11.5 136t-35 79t-60.5 26q-57 0 -88.5 -42t-44 -123.5t-12.5 -202.5v-535h-266v1120h211l28 -143h17q22 53 59 89.5t88 55.5t113 19
q97 0 154 -45.5t81 -114.5h19q38 78 98.5 119t151.5 41z" />
    <glyph glyph-name="n" unicode="n" horiz-adv-x="1026" 
d="M618 1141q142 0 218.5 -102.5t76.5 -297.5v-741h-266v664q0 118 -24 178.5t-91 60.5q-84 0 -117.5 -82t-33.5 -282v-539h-266v1120h211l28 -143h17q25 53 61 89.5t83 55.5t103 19z" />
    <glyph glyph-name="o" unicode="o" horiz-adv-x="999" 
d="M926 563q0 -117 -23.5 -222t-74 -186t-132 -128t-198.5 -47q-109 0 -189 46t-132 126.5t-77.5 186t-25.5 224.5q0 169 44.5 299.5t139 204.5t244.5 74q129 0 224.5 -67t147.5 -195.5t52 -315.5zM344 559q0 -116 16.5 -195t51 -119t88.5 -40q55 0 88.5 39.5t49 119.5
t15.5 199q0 118 -15.5 196t-49 117t-88.5 39q-82 0 -119 -87t-37 -269z" />
    <glyph glyph-name="p" unicode="p" horiz-adv-x="1024" 
d="M621 1141q158 0 243.5 -152t85.5 -432q0 -180 -38.5 -309t-110.5 -198.5t-172 -69.5q-51 0 -96.5 18t-83 55t-66.5 94h-10q5 -64 6.5 -111.5t1.5 -78.5v-449h-266v1612h215l39 -147h14q34 66 69.5 102.5t77 51t91.5 14.5zM537 915q-54 0 -88.5 -34t-51 -106t-16.5 -187
v-56q0 -111 16.5 -182t51.5 -105t88 -34q48 0 80 38t47.5 114.5t15.5 191.5q0 182 -34.5 271t-108.5 89z" />
    <glyph glyph-name="q" unicode="q" horiz-adv-x="1024" 
d="M643 -492v435q0 32 3 83t7 124h-10q-44 -89 -105.5 -129.5t-140.5 -40.5q-151 0 -237 150.5t-86 422.5q0 187 39.5 318t114 200.5t178.5 69.5q80 0 135.5 -36.5t99.5 -127.5h16l23 143h229v-1612h-266zM487 211q53 0 87.5 32.5t51.5 100.5t17 172v55q0 179 -37.5 258.5
t-122.5 79.5q-69 0 -104 -89t-35 -271q0 -174 35.5 -256t107.5 -82z" />
    <glyph glyph-name="r" unicode="r" horiz-adv-x="711" 
d="M602 1141q22 0 43 -3.5t49 -11.5l-24 -284q-20 8 -43.5 11t-51.5 3q-46 0 -82 -20t-60.5 -57.5t-37 -90t-12.5 -117.5v-571h-266v1120h205l38 -184h13q22 53 55 100t77 76t97 29z" />
    <glyph glyph-name="s" unicode="s" horiz-adv-x="766" 
d="M711 328q0 -114 -42.5 -191.5t-123 -117t-193.5 -39.5q-81 0 -154.5 15.5t-138.5 47.5v258q54 -37 125 -63.5t144 -26.5q56 0 86 26t30 76q0 28 -12 52.5t-48 52t-108 63.5q-69 38 -118 87t-75 112t-26 143q0 148 92 233t252 85q82 0 154.5 -22.5t142.5 -65.5l-73 -205
q-48 32 -101 54t-108 22q-49 0 -75 -23.5t-26 -64.5q0 -29 12 -50t47.5 -46.5t104.5 -67.5q69 -40 121 -87t81.5 -109t29.5 -148z" />
    <glyph glyph-name="t" unicode="t" horiz-adv-x="649" 
d="M489 213q28 0 59.5 7.5t65.5 23.5v-213q-44 -25 -96.5 -38t-111.5 -13q-96 0 -156.5 38.5t-88.5 117t-28 198.5v565h-110v143l131 70l63 244h182v-236h201v-221h-201v-555q0 -66 20.5 -98.5t69.5 -32.5z" />
    <glyph glyph-name="u" unicode="u" horiz-adv-x="1026" 
d="M911 1120v-1120h-209l-30 143h-15q-25 -54 -61 -90t-82.5 -54.5t-103.5 -18.5q-99 0 -165 49t-99 140.5t-33 219.5v731h266v-651q0 -126 25 -189t81 -63q67 0 101 39t46.5 114t12.5 181v569h266z" />
    <glyph glyph-name="v" unicode="v" horiz-adv-x="909" 
d="M309 0l-303 1120h277l127 -592q14 -58 23 -117t16 -124h8q2 46 11.5 102.5t23.5 122.5l135 608h276l-305 -1120h-289z" />
    <glyph glyph-name="w" unicode="w" horiz-adv-x="1403" 
d="M842 0l-101 563q-5 35 -10.5 72.5t-10.5 75.5t-9.5 75t-8.5 70h-6q-5 -37 -10 -75.5t-10 -76.5t-10 -73.5t-11 -65.5l-104 -565h-303l-236 1120h267l79 -430q11 -56 19.5 -119.5t16 -129t12.5 -128.5h6q4 39 8.5 80t10.5 86t14 93.5t18 101.5l86 446h305l84 -452
q9 -59 18 -120.5t17 -120.5t14 -114h8q3 50 8.5 104.5t13 112.5t17.5 115l92 475h263l-240 -1120h-307z" />
    <glyph glyph-name="x" unicode="x" horiz-adv-x="891" 
d="M276 573l-249 547h288l131 -336l129 336h287l-248 -551l260 -569h-288l-146 360l-141 -360h-283z" />
    <glyph glyph-name="y" unicode="y" horiz-adv-x="909" 
d="M6 1120h279l131 -542q9 -37 17 -74.5t13.5 -72.5t8.5 -66h8q5 41 15 92.5t26 117.5l123 545h276l-334 -1229q-37 -138 -87.5 -222t-118.5 -122.5t-160 -38.5q-34 0 -65 5t-62 12v235q20 -6 40.5 -10t39.5 -4q41 0 66.5 16t45.5 59t43 124l17 67z" />
    <glyph glyph-name="z" unicode="z" horiz-adv-x="739" 
d="M700 0h-659v166l348 729h-328v225h623v-180l-334 -717h350v-223z" />
    <glyph glyph-name="braceleft" unicode="{" horiz-adv-x="748" 
d="M690 -338q-157 0 -252.5 30.5t-138.5 103.5t-43 202v283q0 59 -21 99.5t-66.5 61.5t-119.5 21v211q72 0 117.5 19.5t67.5 60t22 102.5v287q0 118 38 191t132.5 107.5t263.5 35.5v-213q-58 -2 -98.5 -14t-61 -41.5t-20.5 -86.5v-293q0 -115 -43 -176t-143 -78v-12
q101 -18 143.5 -79t42.5 -169v-297q0 -50 17 -80.5t56.5 -45.5t106.5 -17v-213z" />
    <glyph glyph-name="bar" unicode="|" horiz-adv-x="848" 
d="M305 1573h236v-2048h-236v2048z" />
    <glyph glyph-name="braceright" unicode="}" horiz-adv-x="748" 
d="M57 -338v213q66 2 105.5 16t57.5 44.5t18 82.5v297q0 110 42 170t142 78v12q-100 17 -142 79t-42 175v293q0 58 -23.5 87.5t-64 41t-93.5 13.5v213q158 -1 253 -32t137 -103.5t42 -198.5v-287q0 -58 21 -99t67 -62t121 -21v-211q-72 0 -118.5 -20.5t-68.5 -61t-22 -100.5
v-283q0 -119 -37.5 -193t-131.5 -108.5t-263 -34.5z" />
    <glyph glyph-name="asciitilde" unicode="~" horiz-adv-x="969" 
d="M455 616q-54 28 -103.5 42t-93.5 14q-46 0 -97 -31t-104 -90v233q45 53 100.5 80t123.5 27q61 0 117 -18t114 -46q57 -27 104.5 -41t92.5 -14q46 0 100 33t100 88v-234q-44 -52 -99.5 -78t-121.5 -26q-63 0 -117 16.5t-116 44.5z" />
    <glyph glyph-name="uni00A0" unicode="&#xa0;" horiz-adv-x="367" 
 />
    <glyph glyph-name="exclamdown" unicode="&#xa1;" horiz-adv-x="526" 
d="M152 637h223l43 -1012h-312zM424 969q0 -85 -42 -127.5t-118 -42.5t-115.5 43.5t-39.5 126.5q0 78 40 122t115 44q72 0 116 -43t44 -123z" />
    <glyph glyph-name="cent" unicode="&#xa2;" horiz-adv-x="961" 
d="M606 1483v-160q56 -4 113.5 -22.5t103.5 -47.5l-71 -215q-45 29 -91.5 43.5t-85.5 14.5q-59 0 -98 -36.5t-58.5 -114.5t-19.5 -204q0 -122 18 -198.5t56 -112t98 -35.5q54 0 115 22t115 60v-227q-38 -29 -89.5 -49.5t-105.5 -28.5v-192h-149v194q-114 13 -187 84.5
t-108 194.5t-35 288q0 162 36 286t109 199.5t185 90.5v166h149z" />
    <glyph glyph-name="sterling" unicode="&#xa3;" horiz-adv-x="961" 
d="M580 1483q78 0 149.5 -20.5t140.5 -63.5l-75 -219q-55 31 -102.5 45t-90.5 14q-55 0 -80.5 -41.5t-25.5 -132.5v-217h258v-205h-258v-154q0 -55 -14.5 -100.5t-43.5 -81.5t-73 -63h524v-244h-797v231q45 28 74 61t43 80t14 115v156h-135v205h135v217q0 137 41.5 230
t121.5 140.5t194 47.5z" />
    <glyph glyph-name="currency" unicode="&#xa4;" horiz-adv-x="1118" 
d="M158 723q0 56 16.5 108t48.5 103l-133 133l125 123l129 -131q48 32 101.5 47.5t111.5 15.5q59 0 111.5 -16.5t101.5 -48.5l131 133l125 -121l-131 -133q31 -48 46 -100.5t15 -112.5t-15 -114t-46 -101l129 -129l-123 -123l-131 131q-49 -31 -102.5 -46t-110.5 -15
q-61 0 -115 15t-100 46l-127 -129l-123 123l131 129q-32 47 -48.5 100t-16.5 113zM334 723q0 -61 29.5 -112.5t80.5 -82t113 -30.5q65 0 116.5 30.5t82 82t30.5 112.5q0 62 -31 113.5t-83 82.5t-115 31q-61 0 -112 -30.5t-81 -82t-30 -114.5z" />
    <glyph glyph-name="yen" unicode="&#xa5;" horiz-adv-x="961" 
d="M481 889l160 573h289l-271 -737h201v-176h-244v-141h244v-175h-244v-233h-272v233h-244v175h244v141h-244v176h195l-266 737h286z" />
    <glyph glyph-name="brokenbar" unicode="&#xa6;" horiz-adv-x="848" 
d="M305 1554h236v-809h-236v809zM305 332h236v-809h-236v809z" />
    <glyph glyph-name="section" unicode="&#xa7;" horiz-adv-x="840" 
d="M80 803q0 75 38.5 135.5t108.5 101.5q-63 50 -95 109t-32 129q0 131 95.5 206t242.5 75q80 0 152 -20t145 -58l-71 -185q-60 38 -114.5 57t-100.5 19q-57 0 -87 -25t-30 -71q0 -33 18 -57.5t52.5 -46.5t84.5 -48q92 -45 151 -90.5t87.5 -101t28.5 -131.5q0 -83 -32 -145
t-95 -111q59 -48 85.5 -105.5t26.5 -128.5q0 -142 -97.5 -226.5t-264.5 -84.5q-85 0 -157.5 20t-131.5 60v209q38 -28 88.5 -51t101.5 -36.5t91 -13.5q68 0 104.5 29.5t36.5 81.5q0 36 -13.5 59.5t-49.5 48t-105 62.5q-96 51 -153.5 98t-83 103t-25.5 133zM293 836
q0 -35 14.5 -63t44 -53t74.5 -52l61 -35q26 23 40 54t14 69q0 42 -16 74t-54 62t-106 64q-37 -16 -54.5 -47.5t-17.5 -72.5z" />
    <glyph glyph-name="dieresis" unicode="&#xa8;" horiz-adv-x="993" 
d="M186 1395q0 68 34 102.5t89 34.5q57 0 91 -36t34 -101q0 -63 -34 -99t-91 -36q-55 0 -89 34.5t-34 100.5zM557 1395q0 68 34 102.5t91 34.5t91 -36t34 -101q0 -63 -34 -99t-91 -36t-91 35.5t-34 99.5z" />
    <glyph glyph-name="copyright" unicode="&#xa9;" horiz-adv-x="1692" 
d="M838 -20q-170 0 -308.5 57t-237.5 158.5t-152.5 238t-53.5 295.5q0 168 58.5 306.5t162.5 238.5t242.5 154.5t298.5 54.5q165 0 303.5 -57t240.5 -159t158 -240t56 -300q0 -164 -57.5 -301t-161.5 -237t-244 -154.5t-305 -54.5zM879 266q-203 0 -315.5 121.5
t-112.5 341.5q0 146 50.5 250t146 159.5t229.5 55.5q77 0 150.5 -18.5t146.5 -53.5l-78 -155q-52 26 -103.5 38.5t-97.5 12.5q-109 0 -169 -72t-60 -223q0 -145 57 -213t174 -68q57 0 118.5 15.5t119.5 44.5v-176q-60 -29 -123.5 -44.5t-132.5 -15.5zM852 115
q132 0 241.5 44.5t189.5 126.5t123.5 194t43.5 247q0 140 -45.5 254t-127.5 196t-192.5 126.5t-240.5 44.5q-136 0 -247 -47.5t-191 -132t-123 -198t-43 -245.5q0 -138 46.5 -250.5t130 -193t194.5 -123.5t241 -43z" />
    <glyph glyph-name="ordfeminine" unicode="&#xaa;" horiz-adv-x="678" 
d="M354 1479q114 0 175 -68t61 -199v-450h-133l-33 110q-29 -56 -76.5 -89t-120.5 -33q-58 0 -98.5 31t-62 82t-21.5 110q0 83 36 129.5t99.5 67.5t147.5 28l73 6v25q0 49 -19 72.5t-67 23.5q-46 0 -86.5 -15t-85.5 -40l-55 139q62 34 126 52t140 18zM401 1087l-57 -6
q-55 -6 -81.5 -29.5t-26.5 -70.5q0 -38 17.5 -59t51.5 -21q45 0 70.5 42.5t25.5 109.5v34z" />
    <glyph glyph-name="guillemotleft" unicode="&#xab;" horiz-adv-x="1067" 
d="M55 575l310 445l190 -100l-211 -359l211 -356l-190 -103l-310 445v28zM506 575l309 445l191 -100l-209 -359l209 -356l-191 -103l-309 445v28z" />
    <glyph glyph-name="logicalnot" unicode="&#xac;" horiz-adv-x="969" 
d="M889 831v-589h-221v372h-600v217h821z" />
    <glyph glyph-name="uni00AD" unicode="&#xad;" horiz-adv-x="625" 
d="M57 422v256h510v-256h-510z" />
    <glyph glyph-name="registered" unicode="&#xae;" horiz-adv-x="1692" 
d="M537 307v877h278q172 0 260 -66t88 -200q0 -86 -34 -146.5t-109 -95.5l197 -369h-230l-153 332h-86v-332h-211zM748 788h55q68 0 106.5 28.5t38.5 92.5q0 59 -33 84t-110 25h-57v-230zM838 -20q-170 0 -308.5 57t-237.5 158.5t-152.5 238t-53.5 295.5q0 168 58.5 306.5
t162.5 238.5t242.5 154.5t298.5 54.5q165 0 303.5 -57t240.5 -159t158 -240t56 -300q0 -164 -57.5 -301t-161.5 -237t-244 -154.5t-305 -54.5zM852 115q132 0 241.5 44.5t189.5 126.5t123.5 194t43.5 247q0 140 -45.5 254t-127.5 196t-192.5 126.5t-240.5 44.5
q-136 0 -247 -47.5t-191 -132t-123 -198t-43 -245.5q0 -138 46.5 -250.5t130 -193t194.5 -123.5t241 -43z" />
    <glyph glyph-name="overscore" unicode="&#xaf;" horiz-adv-x="967" 
d="M973 1556h-977v201h977v-201z" />
    <glyph glyph-name="degree" unicode="&#xb0;" horiz-adv-x="741" 
d="M369 883q-87 0 -156.5 38t-110.5 106t-41 157t41 156.5t111 105t156 37.5q89 0 159 -38t110 -105.5t40 -155.5q0 -90 -41 -158t-111 -105.5t-157 -37.5zM369 1042q65 0 102 38t37 104q0 63 -36.5 101t-102.5 38t-102 -39.5t-36 -99.5q0 -66 37.5 -104t100.5 -38z" />
    <glyph glyph-name="plusminus" unicode="&#xb1;" horiz-adv-x="969" 
d="M68 0v217h833v-217h-833zM596 921h305v-217h-305v-381h-221v381h-307v217h307v386h221v-386z" />
    <glyph glyph-name="uni00B2" unicode="&#xb2;" horiz-adv-x="686" 
d="M606 850h-547v172l185 217q50 62 80.5 104.5t44.5 77t14 72.5t-23.5 62t-66.5 24q-40 0 -76 -21.5t-72 -64.5l-94 129q38 53 110.5 90t157.5 37q126 0 195.5 -67t69.5 -169q0 -74 -25 -135t-83 -131t-157 -174l-40 -51h327v-172z" />
    <glyph glyph-name="uni00B3" unicode="&#xb3;" horiz-adv-x="686" 
d="M317 1747q119 0 193 -58t74 -161q0 -77 -34.5 -130.5t-100.5 -84.5v-8q77 -23 117 -77.5t40 -140.5q0 -118 -87 -185.5t-222 -67.5q-67 0 -125.5 15.5t-108.5 47.5v188q48 -37 106.5 -55t125.5 -18q60 0 89.5 25t29.5 69q0 57 -34.5 85t-107.5 28h-82v155h70
q68 0 101.5 29t33.5 80q0 44 -22.5 69t-73.5 25q-43 0 -80.5 -17t-79.5 -55l-86 129q59 56 125.5 84.5t138.5 28.5z" />
    <glyph glyph-name="acute" unicode="&#xb4;" horiz-adv-x="637" 
d="M555 1569v-19q-21 -29 -54 -68t-72.5 -82t-80 -84.5t-76.5 -74.5h-190v27q36 54 66 105.5t55.5 100.5t46.5 95h305z" />
    <glyph glyph-name="uni00B5" unicode="&#xb5;" horiz-adv-x="1026" 
d="M911 1120v-1120h-209l-30 143h-13q-17 -51 -42.5 -87.5t-56.5 -56t-66 -19.5q-43 0 -70 22t-47 68h-6q3 -33 4.5 -69.5t2.5 -75t1 -77.5v-340h-266v1612h266v-657q0 -121 25 -183.5t81 -62.5q67 0 101 46.5t46.5 128.5t12.5 188v540h266z" />
    <glyph glyph-name="paragraph" unicode="&#xb6;" horiz-adv-x="1024" 
d="M895 -260h-152v1673h-125v-1673h-151v819q-19 -9 -40.5 -13.5t-47.5 -4.5q-99 0 -163.5 55t-96 166.5t-31.5 279.5q0 170 34 284.5t105 172t183 57.5h485v-1816z" />
    <glyph glyph-name="periodcentered" unicode="&#xb7;" horiz-adv-x="522" 
d="M104 720q0 82 41 125t119 43q74 0 115 -42.5t41 -125.5q0 -81 -42 -124.5t-114 -43.5q-73 0 -116.5 43.5t-43.5 124.5z" />
    <glyph glyph-name="cedilla" unicode="&#xb8;" horiz-adv-x="340" 
d="M369 -266q0 -106 -65.5 -166t-188.5 -60q-45 0 -83 5t-69 12v156q28 -8 54 -11.5t49 -3.5q47 0 71.5 19.5t24.5 54.5q0 41 -38 64.5t-106 27.5l70 168h135l-35 -82q58 -10 98 -34.5t61.5 -62.5t21.5 -87z" />
    <glyph glyph-name="uni00B9" unicode="&#xb9;" horiz-adv-x="686" 
d="M510 1726v-876h-199v428q0 35 0.5 69.5t1.5 69.5t4 72q-13 -16 -25.5 -26.5t-23.5 -18.5l-102 -82l-96 131l278 233h162z" />
    <glyph glyph-name="ordmasculine" unicode="&#xba;" horiz-adv-x="678" 
d="M627 1114q0 -170 -75 -267t-212 -97q-136 0 -212.5 99t-76.5 265q0 172 78 268.5t211 96.5q87 0 151.5 -42.5t100 -124t35.5 -198.5zM244 1114q0 -104 23.5 -154.5t72.5 -50.5q51 0 73.5 50.5t22.5 154.5t-23 155.5t-73 51.5q-48 0 -72 -51.5t-24 -155.5z" />
    <glyph glyph-name="guillemotright" unicode="&#xbb;" horiz-adv-x="1067" 
d="M1012 547l-310 -445l-190 103l211 356l-211 359l190 100l310 -445v-28zM563 547l-309 -445l-191 103l209 356l-209 359l191 100l309 -445v-28z" />
    <glyph glyph-name="onequarter" unicode="&#xbc;" horiz-adv-x="1634" 
d="M371 0l723 1462h215l-725 -1462h-213zM303 586v428q0 34 0.5 68t1.5 69.5t4 73.5q-13 -16 -25.5 -27.5t-23.5 -19.5l-102 -80l-97 129l279 235h162v-876h-199zM1305 0v158h-328v147l309 574h213v-560h107v-161h-107v-158h-194zM1141 319h164v201q0 41 1.5 78t4.5 66
q-14 -37 -26.5 -66.5t-24.5 -52.5z" />
    <glyph glyph-name="onehalf" unicode="&#xbd;" horiz-adv-x="1657" 
d="M340 0l723 1462h215l-725 -1462h-213zM303 586v428v50.5t0.5 51.5t2 53.5t3.5 55.5q-13 -16 -25.5 -27.5t-23.5 -19.5l-102 -80l-97 129l279 235h162v-876h-199zM1030 0v172l184 209q54 61 85 103.5t44 78t13 74.5q0 40 -24.5 65t-67.5 25q-40 0 -76.5 -21t-71.5 -65
l-94 131q38 53 110.5 90t157.5 37q126 0 195 -67t69 -168q0 -75 -21.5 -132t-58.5 -106t-83 -100l-142 -154h328v-172h-547z" />
    <glyph glyph-name="threequarters" unicode="&#xbe;" horiz-adv-x="1645" 
d="M375 0l723 1462h215l-725 -1462h-213zM297 569q-67 0 -125.5 15.5t-108.5 46.5v188q48 -35 106.5 -54.5t125.5 -19.5q60 0 89.5 25t29.5 70q0 59 -34.5 86.5t-107.5 27.5h-82v156h70q68 0 101.5 28.5t33.5 80.5q0 43 -22.5 68.5t-73.5 25.5q-43 0 -80.5 -18t-79.5 -56
l-86 131q59 56 125.5 84.5t138.5 28.5q119 0 193 -58t74 -161q0 -77 -34.5 -131.5t-100.5 -83.5v-9q77 -24 117 -77.5t40 -141.5q0 -116 -87 -184t-222 -68zM1315 0v158h-328v147l309 574h213v-560h107v-161h-107v-158h-194zM1151 319h164v201q0 41 1.5 78t4.5 66
q-13 -37 -26 -66.5t-25 -52.5z" />
    <glyph glyph-name="questiondown" unicode="&#xbf;" horiz-adv-x="756" 
d="M543 637v-76q0 -67 -12.5 -119.5t-40.5 -98.5t-74 -95q-44 -47 -70.5 -84.5t-38.5 -74.5t-12 -83q0 -67 33.5 -102t97.5 -35q56 0 111.5 24t118.5 68l90 -209q-85 -61 -170 -92t-172 -31q-181 0 -276 94t-95 259q0 88 20.5 153.5t61 122t100.5 117.5q48 48 70.5 81
t29.5 63.5t7 70.5v47h221zM590 967q0 -82 -40.5 -125t-119.5 -43q-73 0 -114 42.5t-41 125.5q0 81 41.5 124.5t113.5 43.5q74 0 117 -43.5t43 -124.5z" />
    <glyph glyph-name="Agrave" unicode="&#xc0;" horiz-adv-x="1077" 
d="M778 0l-76 352h-325l-76 -352h-301l354 1462h363l360 -1462h-299zM659 596l-79 387q-8 48 -15.5 94t-14 88.5t-11.5 79.5q-3 -35 -9 -77t-14 -88t-18 -93l-78 -391h239zM516 1901q19 -43 50 -101.5t63.5 -113t54.5 -86.5v-27h-190q-27 24 -66.5 64t-82 86t-78.5 88.5
t-56 70.5v19h305z" />
    <glyph glyph-name="Aacute" unicode="&#xc1;" horiz-adv-x="1077" 
d="M778 0l-76 352h-325l-76 -352h-301l354 1462h363l360 -1462h-299zM659 596l-79 387q-8 48 -15.5 94t-14 88.5t-11.5 79.5q-3 -35 -9 -77t-14 -88t-18 -93l-78 -391h239zM872 1901v-19q-21 -29 -54 -68t-72.5 -82t-80 -84.5t-76.5 -74.5h-190v27q36 54 66 105.5
t55.5 100.5t46.5 95h305z" />
    <glyph glyph-name="Acircumflex" unicode="&#xc2;" horiz-adv-x="1077" 
d="M778 0l-76 352h-325l-76 -352h-301l354 1462h363l360 -1462h-299zM659 596l-79 387q-8 48 -15.5 94t-14 88.5t-11.5 79.5q-3 -35 -9 -77t-14 -88t-18 -93l-78 -391h239zM661 1901q23 -45 53.5 -95.5t66 -103t73.5 -102.5v-27h-160q-35 31 -73.5 72.5t-82.5 93.5
q-44 -52 -83 -96t-70 -70h-162v27q32 40 69.5 95.5t71.5 111t53 94.5h244z" />
    <glyph glyph-name="Atilde" unicode="&#xc3;" horiz-adv-x="1077" 
d="M778 0l-76 352h-325l-76 -352h-301l354 1462h363l360 -1462h-299zM659 596l-79 387q-8 48 -15.5 94t-14 88.5t-11.5 79.5q-3 -35 -9 -77t-14 -88t-18 -93l-78 -391h239zM205 1571q2 48 9.5 101t26.5 99.5t53.5 75.5t88.5 29q41 0 78 -15.5t72 -36.5t68 -36.5t65 -15.5
q28 0 42 28t21 78h146q-3 -148 -54 -226.5t-125 -78.5q-39 0 -78.5 16t-76.5 36.5t-69 36.5t-56 16q-22 0 -40.5 -25.5t-25.5 -81.5h-145z" />
    <glyph glyph-name="Adieresis" unicode="&#xc4;" horiz-adv-x="1077" 
d="M778 0l-76 352h-325l-76 -352h-301l354 1462h363l360 -1462h-299zM659 596l-79 387q-8 48 -15.5 94t-14 88.5t-11.5 79.5q-3 -35 -9 -77t-14 -88t-18 -93l-78 -391h239zM229 1727q0 68 34 102.5t89 34.5q57 0 91 -36t34 -101q0 -63 -34 -99t-91 -36q-55 0 -89 34.5
t-34 100.5zM600 1727q0 68 34 102.5t91 34.5t91 -36t34 -101q0 -63 -34 -99t-91 -36t-91 35.5t-34 99.5z" />
    <glyph glyph-name="Aring" unicode="&#xc5;" horiz-adv-x="1077" 
d="M778 0l-76 352h-325l-76 -352h-301l354 1462h363l360 -1462h-299zM659 596l-79 387q-8 48 -15.5 94t-14 88.5t-11.5 79.5q-3 -35 -9 -77t-14 -88t-18 -93l-78 -391h239zM536 1325q-107 0 -172 65.5t-65 168.5q0 104 65 169.5t172 65.5t173.5 -66t66.5 -167
q0 -102 -65 -169t-175 -67zM539 1468q40 0 67 25.5t27 67.5q0 40 -26.5 66t-67.5 26q-40 0 -67.5 -26t-27.5 -66q0 -42 24.5 -67.5t70.5 -25.5z" />
    <glyph glyph-name="AE" unicode="&#xc6;" horiz-adv-x="1417" 
d="M1331 0h-653v352h-281l-98 -352h-305l446 1462h891v-241h-377v-342h351v-240h-351v-395h377v-244zM463 596h215v625h-45z" />
    <glyph glyph-name="Ccedilla" unicode="&#xc7;" horiz-adv-x="989" 
d="M633 1241q-64 0 -112 -38t-79.5 -107.5t-47 -163.5t-15.5 -205q0 -163 31 -275.5t91 -170.5t146 -58q68 0 129 23t121 55v-250q-63 -35 -135.5 -53t-155.5 -18q-165 0 -280.5 87.5t-176.5 255t-61 406.5q0 164 34.5 301.5t101.5 239t164.5 157.5t223.5 56q88 0 170 -22
t158 -68l-80 -232q-54 37 -109 58.5t-118 21.5zM768 -266q0 -106 -65.5 -166t-188.5 -60q-45 0 -83 5t-69 12v156q28 -8 54 -11.5t49 -3.5q47 0 71.5 19.5t24.5 54.5q0 41 -38 64.5t-106 27.5l70 168h135l-35 -82q58 -10 98 -34.5t61.5 -62.5t21.5 -87z" />
    <glyph glyph-name="Egrave" unicode="&#xc8;" horiz-adv-x="874" 
d="M788 0h-657v1462h657v-239h-376v-344h350v-240h-350v-395h376v-244zM442 1901q19 -43 50 -101.5t63.5 -113t54.5 -86.5v-27h-190q-27 24 -66.5 64t-82 86t-78.5 88.5t-56 70.5v19h305z" />
    <glyph glyph-name="Eacute" unicode="&#xc9;" horiz-adv-x="874" 
d="M788 0h-657v1462h657v-239h-376v-344h350v-240h-350v-395h376v-244zM801 1901v-19q-21 -29 -54 -68t-72.5 -82t-80 -84.5t-76.5 -74.5h-190v27q36 54 66 105.5t55.5 100.5t46.5 95h305z" />
    <glyph glyph-name="Ecircumflex" unicode="&#xca;" horiz-adv-x="874" 
d="M788 0h-657v1462h657v-239h-376v-344h350v-240h-350v-395h376v-244zM579 1901q23 -45 53.5 -95.5t66 -103t73.5 -102.5v-27h-160q-35 31 -73.5 72.5t-82.5 93.5q-44 -52 -83 -96t-70 -70h-162v27q32 40 69.5 95.5t71.5 111t53 94.5h244z" />
    <glyph glyph-name="Edieresis" unicode="&#xcb;" horiz-adv-x="874" 
d="M788 0h-657v1462h657v-239h-376v-344h350v-240h-350v-395h376v-244zM145 1727q0 68 34 102.5t89 34.5q57 0 91 -36t34 -101q0 -63 -34 -99t-91 -36q-55 0 -89 34.5t-34 100.5zM516 1727q0 68 34 102.5t91 34.5t91 -36t34 -101q0 -63 -34 -99t-91 -36t-91 35.5t-34 99.5z
" />
    <glyph glyph-name="Igrave" unicode="&#xcc;" horiz-adv-x="543" 
d="M131 0v1462h281v-1462h-281zM236 1911q19 -43 50 -101.5t63.5 -113t54.5 -86.5v-27h-190q-27 24 -66.5 64t-82 86t-78.5 88.5t-56 70.5v19h305z" />
    <glyph glyph-name="Iacute" unicode="&#xcd;" horiz-adv-x="543" 
d="M131 0v1462h281v-1462h-281zM610 1911v-19q-21 -29 -54 -68t-72.5 -82t-80 -84.5t-76.5 -74.5h-190v27q36 54 66 105.5t55.5 100.5t46.5 95h305z" />
    <glyph glyph-name="Icircumflex" unicode="&#xce;" horiz-adv-x="543" 
d="M131 0v1462h281v-1462h-281zM393 1911q23 -45 53.5 -95.5t66 -103t73.5 -102.5v-27h-160q-35 31 -73.5 72.5t-82.5 93.5q-44 -52 -83 -96t-70 -70h-162v27q32 40 69.5 95.5t71.5 111t53 94.5h244z" />
    <glyph glyph-name="Idieresis" unicode="&#xcf;" horiz-adv-x="543" 
d="M131 0v1462h281v-1462h-281zM-42 1737q0 68 34 102.5t89 34.5q57 0 91 -36t34 -101q0 -63 -34 -99t-91 -36q-55 0 -89 34.5t-34 100.5zM329 1737q0 68 34 102.5t91 34.5t91 -36t34 -101q0 -63 -34 -99t-91 -36t-91 35.5t-34 99.5z" />
    <glyph glyph-name="Eth" unicode="&#xd0;" horiz-adv-x="1145" 
d="M496 1462q180 0 305.5 -81t190.5 -238t65 -385q0 -245 -67.5 -414t-197 -256.5t-317.5 -87.5h-344v649h-115v211h115v602h365zM492 1219h-80v-359h161v-211h-161v-403h61q152 0 223.5 123t71.5 376q0 164 -31 269t-92.5 155t-152.5 50z" />
    <glyph glyph-name="Ntilde" unicode="&#xd1;" horiz-adv-x="1273" 
d="M1143 0h-330l-428 1020h-8q6 -71 9.5 -133.5t5 -114.5t1.5 -94v-678h-262v1462h328l426 -997h8q-4 69 -7 128.5t-5 110.5t-2 93v665h264v-1462zM305 1571q2 48 9.5 101t26.5 99.5t53.5 75.5t88.5 29q41 0 78 -15.5t72 -36.5t68 -36.5t65 -15.5q28 0 42 28t21 78h146
q-3 -148 -54 -226.5t-125 -78.5q-39 0 -78.5 16t-76.5 36.5t-69 36.5t-56 16q-22 0 -40.5 -25.5t-25.5 -81.5h-145z" />
    <glyph glyph-name="Ograve" unicode="&#xd2;" horiz-adv-x="1214" 
d="M1126 733q0 -174 -32 -313.5t-96 -237.5t-161.5 -150t-228.5 -52q-132 0 -230 52.5t-162 151.5t-96 238t-32 313q0 246 59 413t175 252t286 85q177 0 291.5 -91t170.5 -259.5t56 -401.5zM379 733q0 -168 26 -280.5t77 -169t126 -56.5q76 0 126.5 55t76 167t25.5 284
q0 257 -57 382.5t-171 125.5q-75 0 -126 -57t-77 -170t-26 -281zM588 1901q19 -43 50 -101.5t63.5 -113t54.5 -86.5v-27h-190q-27 24 -66.5 64t-82 86t-78.5 88.5t-56 70.5v19h305z" />
    <glyph glyph-name="Oacute" unicode="&#xd3;" horiz-adv-x="1214" 
d="M1126 733q0 -174 -32 -313.5t-96 -237.5t-161.5 -150t-228.5 -52q-132 0 -230 52.5t-162 151.5t-96 238t-32 313q0 246 59 413t175 252t286 85q177 0 291.5 -91t170.5 -259.5t56 -401.5zM379 733q0 -168 26 -280.5t77 -169t126 -56.5q76 0 126.5 55t76 167t25.5 284
q0 257 -57 382.5t-171 125.5q-75 0 -126 -57t-77 -170t-26 -281zM961 1901v-19q-21 -29 -54 -68t-72.5 -82t-80 -84.5t-76.5 -74.5h-190v27q36 54 66 105.5t55.5 100.5t46.5 95h305z" />
    <glyph glyph-name="Ocircumflex" unicode="&#xd4;" horiz-adv-x="1214" 
d="M1126 733q0 -174 -32 -313.5t-96 -237.5t-161.5 -150t-228.5 -52q-132 0 -230 52.5t-162 151.5t-96 238t-32 313q0 246 59 413t175 252t286 85q177 0 291.5 -91t170.5 -259.5t56 -401.5zM379 733q0 -168 26 -280.5t77 -169t126 -56.5q76 0 126.5 55t76 167t25.5 284
q0 257 -57 382.5t-171 125.5q-75 0 -126 -57t-77 -170t-26 -281zM731 1901q23 -45 53.5 -95.5t66 -103t73.5 -102.5v-27h-160q-35 31 -73.5 72.5t-82.5 93.5q-44 -52 -83 -96t-70 -70h-162v27q32 40 69.5 95.5t71.5 111t53 94.5h244z" />
    <glyph glyph-name="Otilde" unicode="&#xd5;" horiz-adv-x="1214" 
d="M1126 733q0 -174 -32 -313.5t-96 -237.5t-161.5 -150t-228.5 -52q-132 0 -230 52.5t-162 151.5t-96 238t-32 313q0 246 59 413t175 252t286 85q177 0 291.5 -91t170.5 -259.5t56 -401.5zM379 733q0 -168 26 -280.5t77 -169t126 -56.5q76 0 126.5 55t76 167t25.5 284
q0 257 -57 382.5t-171 125.5q-75 0 -126 -57t-77 -170t-26 -281zM277 1571q2 48 9.5 101t26.5 99.5t53.5 75.5t88.5 29q41 0 78 -15.5t72 -36.5t68 -36.5t65 -15.5q28 0 42 28t21 78h146q-3 -148 -54 -226.5t-125 -78.5q-39 0 -78.5 16t-76.5 36.5t-69 36.5t-56 16
q-22 0 -40.5 -25.5t-25.5 -81.5h-145z" />
    <glyph glyph-name="Odieresis" unicode="&#xd6;" horiz-adv-x="1214" 
d="M1126 733q0 -174 -32 -313.5t-96 -237.5t-161.5 -150t-228.5 -52q-132 0 -230 52.5t-162 151.5t-96 238t-32 313q0 246 59 413t175 252t286 85q177 0 291.5 -91t170.5 -259.5t56 -401.5zM379 733q0 -168 26 -280.5t77 -169t126 -56.5q76 0 126.5 55t76 167t25.5 284
q0 257 -57 382.5t-171 125.5q-75 0 -126 -57t-77 -170t-26 -281zM301 1727q0 68 34 102.5t89 34.5q57 0 91 -36t34 -101q0 -63 -34 -99t-91 -36q-55 0 -89 34.5t-34 100.5zM672 1727q0 68 34 102.5t91 34.5t91 -36t34 -101q0 -63 -34 -99t-91 -36t-91 35.5t-34 99.5z" />
    <glyph glyph-name="multiply" unicode="&#xd7;" horiz-adv-x="969" 
d="M745 1137l152 -150l-264 -264l260 -262l-150 -150l-262 260l-264 -260l-145 152l258 260l-258 260l147 152l262 -258z" />
    <glyph glyph-name="Oslash" unicode="&#xd8;" horiz-adv-x="1214" 
d="M1126 733q0 -183 -33.5 -323.5t-99 -236t-162 -144.5t-223.5 -49q-72 0 -133.5 16.5t-114.5 50.5l-71 -151l-142 65l95 189q-85 113 -119.5 258t-34.5 327q0 246 59 413t175 252t286 85q74 0 138.5 -19.5t117.5 -56.5l68 137l139 -65l-88 -178q72 -94 107.5 -237.5
t35.5 -332.5zM844 733q0 74 -6 138t-17 116l-350 -706q26 -32 61 -48t76 -16q78 0 130.5 57.5t79 172t26.5 286.5zM373 733q0 -84 6.5 -153.5t19.5 -124.5l357 714q-29 41 -65 59.5t-81 18.5q-79 0 -132 -57.5t-79 -172t-26 -284.5z" />
    <glyph glyph-name="Ugrave" unicode="&#xd9;" horiz-adv-x="1151" 
d="M1028 1462v-981q0 -168 -52 -279t-153 -166.5t-250 -55.5q-217 0 -333.5 122.5t-116.5 372.5v987h280v-977q0 -139 44 -198.5t128 -59.5q59 0 97.5 25.5t58 82.5t19.5 152v975h278zM561 1901q19 -43 50 -101.5t63.5 -113t54.5 -86.5v-27h-190q-27 24 -66.5 64t-82 86
t-78.5 88.5t-56 70.5v19h305z" />
    <glyph glyph-name="Uacute" unicode="&#xda;" horiz-adv-x="1151" 
d="M1028 1462v-981q0 -168 -52 -279t-153 -166.5t-250 -55.5q-217 0 -333.5 122.5t-116.5 372.5v987h280v-977q0 -139 44 -198.5t128 -59.5q59 0 97.5 25.5t58 82.5t19.5 152v975h278zM926 1901v-19q-21 -29 -54 -68t-72.5 -82t-80 -84.5t-76.5 -74.5h-190v27
q36 54 66 105.5t55.5 100.5t46.5 95h305z" />
    <glyph glyph-name="Ucircumflex" unicode="&#xdb;" horiz-adv-x="1151" 
d="M1028 1462v-981q0 -168 -52 -279t-153 -166.5t-250 -55.5q-217 0 -333.5 122.5t-116.5 372.5v987h280v-977q0 -139 44 -198.5t128 -59.5q59 0 97.5 25.5t58 82.5t19.5 152v975h278zM698 1901q23 -45 53.5 -95.5t66 -103t73.5 -102.5v-27h-160q-35 31 -73.5 72.5
t-82.5 93.5q-44 -52 -83 -96t-70 -70h-162v27q32 40 69.5 95.5t71.5 111t53 94.5h244z" />
    <glyph glyph-name="Udieresis" unicode="&#xdc;" horiz-adv-x="1151" 
d="M1028 1462v-981q0 -168 -52 -279t-153 -166.5t-250 -55.5q-217 0 -333.5 122.5t-116.5 372.5v987h280v-977q0 -139 44 -198.5t128 -59.5q59 0 97.5 25.5t58 82.5t19.5 152v975h278zM266 1727q0 68 34 102.5t89 34.5q57 0 91 -36t34 -101q0 -63 -34 -99t-91 -36
q-55 0 -89 34.5t-34 100.5zM637 1727q0 68 34 102.5t91 34.5t91 -36t34 -101q0 -63 -34 -99t-91 -36t-91 35.5t-34 99.5z" />
    <glyph glyph-name="Yacute" unicode="&#xdd;" horiz-adv-x="971" 
d="M487 868l195 594h289l-346 -899v-563h-279v555l-346 907h291zM838 1901v-19q-21 -29 -54 -68t-72.5 -82t-80 -84.5t-76.5 -74.5h-190v27q36 54 66 105.5t55.5 100.5t46.5 95h305z" />
    <glyph glyph-name="Thorn" unicode="&#xde;" horiz-adv-x="973" 
d="M928 784q0 -107 -25.5 -197.5t-78.5 -157t-135.5 -103.5t-196.5 -37h-80v-289h-281v1462h281v-229h86q218 0 324 -114.5t106 -334.5zM412 528h53q64 0 105 26t61 81.5t20 144.5q0 110 -41 161.5t-127 51.5h-71v-465z" />
    <glyph glyph-name="germandbls" unicode="&#xdf;" horiz-adv-x="1098" 
d="M946 1223q0 -73 -20 -124t-49 -88.5t-58 -67t-49 -58.5t-20 -64q0 -22 11.5 -46t35.5 -50t61 -57q62 -52 102.5 -101t61 -104.5t20.5 -128.5q0 -115 -39.5 -194t-116 -119.5t-186.5 -40.5q-58 0 -119.5 13t-117.5 44v252q32 -23 65.5 -41t68 -27.5t67.5 -9.5
q55 0 81.5 27.5t26.5 74.5q0 33 -11.5 60t-40 57t-79.5 72q-67 55 -101.5 106.5t-46.5 100t-12 94.5q0 58 20 100t49.5 75.5t58.5 66t49 71t20 90.5q0 59 -34 97t-105 38q-51 0 -86.5 -27t-53.5 -80t-18 -132v-1102h-266v1128q0 136 51.5 234t147 151.5t227.5 53.5
q121 0 212 -41t142 -117.5t51 -185.5z" />
    <glyph glyph-name="agrave" unicode="&#xe0;" horiz-adv-x="950" 
d="M504 1141q163 0 248.5 -100.5t85.5 -299.5v-741h-195l-43 150h-6q-34 -57 -72.5 -95t-87.5 -56.5t-115 -18.5q-93 0 -150.5 50t-83.5 130t-26 170q0 175 97 265t276 97l139 6v45q0 92 -28.5 137.5t-93.5 45.5q-48 0 -105 -19t-125 -59l-74 199q76 46 167 70t192 24z
M571 520l-75 -4q-85 -4 -126.5 -47.5t-41.5 -126.5q0 -75 25.5 -112t74.5 -37q63 0 103 61t40 164v102zM493 1569q19 -43 50 -101.5t63.5 -113t54.5 -86.5v-27h-190q-27 24 -66.5 64t-82 86t-78.5 88.5t-56 70.5v19h305z" />
    <glyph glyph-name="aacute" unicode="&#xe1;" horiz-adv-x="950" 
d="M504 1141q163 0 248.5 -100.5t85.5 -299.5v-741h-195l-43 150h-6q-34 -57 -72.5 -95t-87.5 -56.5t-115 -18.5q-93 0 -150.5 50t-83.5 130t-26 170q0 175 97 265t276 97l139 6v45q0 92 -28.5 137.5t-93.5 45.5q-48 0 -105 -19t-125 -59l-74 199q76 46 167 70t192 24z
M571 520l-75 -4q-85 -4 -126.5 -47.5t-41.5 -126.5q0 -75 25.5 -112t74.5 -37q63 0 103 61t40 164v102zM821 1569v-19q-21 -29 -54 -68t-72.5 -82t-80 -84.5t-76.5 -74.5h-190v27q36 54 66 105.5t55.5 100.5t46.5 95h305z" />
    <glyph glyph-name="acircumflex" unicode="&#xe2;" horiz-adv-x="950" 
d="M504 1141q163 0 248.5 -100.5t85.5 -299.5v-741h-195l-43 150h-6q-34 -57 -72.5 -95t-87.5 -56.5t-115 -18.5q-93 0 -150.5 50t-83.5 130t-26 170q0 175 97 265t276 97l139 6v45q0 92 -28.5 137.5t-93.5 45.5q-48 0 -105 -19t-125 -59l-74 199q76 46 167 70t192 24z
M571 520l-75 -4q-85 -4 -126.5 -47.5t-41.5 -126.5q0 -75 25.5 -112t74.5 -37q63 0 103 61t40 164v102zM614 1569q23 -45 53.5 -95.5t66 -103t73.5 -102.5v-27h-160q-35 31 -73.5 72.5t-82.5 93.5q-44 -52 -83 -96t-70 -70h-162v27q32 40 69.5 95.5t71.5 111t53 94.5h244z
" />
    <glyph glyph-name="atilde" unicode="&#xe3;" horiz-adv-x="950" 
d="M504 1141q163 0 248.5 -100.5t85.5 -299.5v-741h-195l-43 150h-6q-34 -57 -72.5 -95t-87.5 -56.5t-115 -18.5q-93 0 -150.5 50t-83.5 130t-26 170q0 175 97 265t276 97l139 6v45q0 92 -28.5 137.5t-93.5 45.5q-48 0 -105 -19t-125 -59l-74 199q76 46 167 70t192 24z
M571 520l-75 -4q-85 -4 -126.5 -47.5t-41.5 -126.5q0 -75 25.5 -112t74.5 -37q63 0 103 61t40 164v102zM156 1239q2 48 9.5 101t26.5 99.5t53.5 75.5t88.5 29q41 0 78 -15.5t72 -36.5t68 -36.5t65 -15.5q28 0 42 28t21 78h146q-3 -148 -54 -226.5t-125 -78.5q-39 0 -78.5 16
t-76.5 36.5t-69 36.5t-56 16q-22 0 -40.5 -25.5t-25.5 -81.5h-145z" />
    <glyph glyph-name="adieresis" unicode="&#xe4;" horiz-adv-x="950" 
d="M504 1141q163 0 248.5 -100.5t85.5 -299.5v-741h-195l-43 150h-6q-34 -57 -72.5 -95t-87.5 -56.5t-115 -18.5q-93 0 -150.5 50t-83.5 130t-26 170q0 175 97 265t276 97l139 6v45q0 92 -28.5 137.5t-93.5 45.5q-48 0 -105 -19t-125 -59l-74 199q76 46 167 70t192 24z
M571 520l-75 -4q-85 -4 -126.5 -47.5t-41.5 -126.5q0 -75 25.5 -112t74.5 -37q63 0 103 61t40 164v102zM180 1395q0 68 34 102.5t89 34.5q57 0 91 -36t34 -101q0 -63 -34 -99t-91 -36q-55 0 -89 34.5t-34 100.5zM551 1395q0 68 34 102.5t91 34.5t91 -36t34 -101
q0 -63 -34 -99t-91 -36t-91 35.5t-34 99.5z" />
    <glyph glyph-name="aring" unicode="&#xe5;" horiz-adv-x="950" 
d="M504 1141q163 0 248.5 -100.5t85.5 -299.5v-741h-195l-43 150h-6q-34 -57 -72.5 -95t-87.5 -56.5t-115 -18.5q-93 0 -150.5 50t-83.5 130t-26 170q0 175 97 265t276 97l139 6v45q0 92 -28.5 137.5t-93.5 45.5q-48 0 -105 -19t-125 -59l-74 199q76 46 167 70t192 24z
M571 520l-75 -4q-85 -4 -126.5 -47.5t-41.5 -126.5q0 -75 25.5 -112t74.5 -37q63 0 103 61t40 164v102zM489 1241q-107 0 -172 65.5t-65 168.5q0 104 65 169.5t172 65.5t173.5 -66t66.5 -167q0 -102 -65 -169t-175 -67zM492 1384q40 0 67 25.5t27 67.5q0 40 -26.5 66
t-67.5 26q-40 0 -67.5 -26t-27.5 -66q0 -42 24.5 -67.5t70.5 -25.5z" />
    <glyph glyph-name="ae" unicode="&#xe6;" horiz-adv-x="1423" 
d="M971 1139q127 0 212.5 -62t129 -175.5t43.5 -268.5v-150h-533q2 -147 53.5 -217.5t157.5 -70.5q71 0 136 19.5t135 64.5v-222q-66 -40 -139 -58.5t-162 -18.5q-74 0 -141 21t-120.5 64.5t-87.5 108.5q-41 -67 -88.5 -109.5t-103 -63.5t-121.5 -21q-99 0 -161.5 50
t-92 130t-29.5 170q0 117 43.5 195.5t127 120t202.5 46.5l139 6v45q0 91 -30 137t-92 46q-48 0 -105 -19t-125 -59l-74 199q71 44 155 69t173 25q88 0 147.5 -29.5t96.5 -89.5q44 59 106.5 88t147.5 29zM571 520l-75 -4q-85 -4 -126.5 -46.5t-41.5 -127.5q0 -75 25.5 -112
t74.5 -37q42 0 74.5 27.5t50.5 78.5t18 119v102zM969 928q-63 0 -103 -59t-43 -193h285q0 80 -16 136.5t-47 86t-76 29.5z" />
    <glyph glyph-name="ccedilla" unicode="&#xe7;" horiz-adv-x="817" 
d="M494 -20q-140 0 -233.5 62.5t-140 190t-46.5 322.5q0 170 45 302.5t139 208t240 75.5q83 0 149.5 -18.5t124.5 -55.5l-74 -213q-46 28 -90.5 41.5t-89.5 13.5q-55 0 -94 -40.5t-59.5 -119t-20.5 -194.5q0 -115 20.5 -192t60 -115.5t97.5 -38.5q57 0 115 21t113 61v-228
q-54 -43 -120.5 -63t-135.5 -20zM693 -266q0 -106 -65.5 -166t-188.5 -60q-45 0 -83 5t-69 12v156q28 -8 54 -11.5t49 -3.5q47 0 71.5 19.5t24.5 54.5q0 41 -38 64.5t-106 27.5l70 168h135l-35 -82q58 -10 98 -34.5t61.5 -62.5t21.5 -87z" />
    <glyph glyph-name="egrave" unicode="&#xe8;" horiz-adv-x="936" 
d="M479 1139q126 0 213.5 -62t132.5 -175.5t45 -268.5v-150h-534q2 -147 54 -216.5t159 -69.5q71 0 134.5 18.5t135.5 63.5v-222q-67 -40 -143 -58.5t-164 -18.5q-154 0 -251 69.5t-142 198t-45 305.5q0 189 45.5 319.5t135.5 198.5t224 68zM485 930q-66 0 -105 -59.5
t-42 -194.5h285q0 79 -16 136t-47 87.5t-75 30.5zM479 1569q19 -43 50 -101.5t63.5 -113t54.5 -86.5v-27h-190q-27 24 -66.5 64t-82 86t-78.5 88.5t-56 70.5v19h305z" />
    <glyph glyph-name="eacute" unicode="&#xe9;" horiz-adv-x="936" 
d="M479 1139q126 0 213.5 -62t132.5 -175.5t45 -268.5v-150h-534q2 -147 54 -216.5t159 -69.5q71 0 134.5 18.5t135.5 63.5v-222q-67 -40 -143 -58.5t-164 -18.5q-154 0 -251 69.5t-142 198t-45 305.5q0 189 45.5 319.5t135.5 198.5t224 68zM485 930q-66 0 -105 -59.5
t-42 -194.5h285q0 79 -16 136t-47 87.5t-75 30.5zM807 1569v-19q-21 -29 -54 -68t-72.5 -82t-80 -84.5t-76.5 -74.5h-190v27q36 54 66 105.5t55.5 100.5t46.5 95h305z" />
    <glyph glyph-name="ecircumflex" unicode="&#xea;" horiz-adv-x="936" 
d="M479 1139q126 0 213.5 -62t132.5 -175.5t45 -268.5v-150h-534q2 -147 54 -216.5t159 -69.5q71 0 134.5 18.5t135.5 63.5v-222q-67 -40 -143 -58.5t-164 -18.5q-154 0 -251 69.5t-142 198t-45 305.5q0 189 45.5 319.5t135.5 198.5t224 68zM485 930q-66 0 -105 -59.5
t-42 -194.5h285q0 79 -16 136t-47 87.5t-75 30.5zM600 1569q23 -45 53.5 -95.5t66 -103t73.5 -102.5v-27h-160q-35 31 -73.5 72.5t-82.5 93.5q-44 -52 -83 -96t-70 -70h-162v27q32 40 69.5 95.5t71.5 111t53 94.5h244z" />
    <glyph glyph-name="edieresis" unicode="&#xeb;" horiz-adv-x="936" 
d="M479 1139q126 0 213.5 -62t132.5 -175.5t45 -268.5v-150h-534q2 -147 54 -216.5t159 -69.5q71 0 134.5 18.5t135.5 63.5v-222q-67 -40 -143 -58.5t-164 -18.5q-154 0 -251 69.5t-142 198t-45 305.5q0 189 45.5 319.5t135.5 198.5t224 68zM485 930q-66 0 -105 -59.5
t-42 -194.5h285q0 79 -16 136t-47 87.5t-75 30.5zM166 1395q0 68 34 102.5t89 34.5q57 0 91 -36t34 -101q0 -63 -34 -99t-91 -36q-55 0 -89 34.5t-34 100.5zM537 1395q0 68 34 102.5t91 34.5t91 -36t34 -101q0 -63 -34 -99t-91 -36t-91 35.5t-34 99.5z" />
    <glyph glyph-name="igrave" unicode="&#xec;" horiz-adv-x="500" 
d="M383 0h-266v1120h266v-1120zM250 1569q19 -43 50 -101.5t63.5 -113t54.5 -86.5v-27h-190q-27 24 -66.5 64t-82 86t-78.5 88.5t-56 70.5v19h305z" />
    <glyph glyph-name="iacute" unicode="&#xed;" horiz-adv-x="500" 
d="M383 0h-266v1120h266v-1120zM578 1569v-19q-21 -29 -54 -68t-72.5 -82t-80 -84.5t-76.5 -74.5h-190v27q36 54 66 105.5t55.5 100.5t46.5 95h305z" />
    <glyph glyph-name="icircumflex" unicode="&#xee;" horiz-adv-x="500" 
d="M383 0h-266v1120h266v-1120zM370 1569q23 -45 53.5 -95.5t66 -103t73.5 -102.5v-27h-160q-35 31 -73.5 72.5t-82.5 93.5q-44 -52 -83 -96t-70 -70h-162v27q32 40 69.5 95.5t71.5 111t53 94.5h244z" />
    <glyph glyph-name="idieresis" unicode="&#xef;" horiz-adv-x="500" 
d="M383 0h-266v1120h266v-1120zM-64 1395q0 68 34 102.5t89 34.5q57 0 91 -36t34 -101q0 -63 -34 -99t-91 -36q-55 0 -89 34.5t-34 100.5zM307 1395q0 68 34 102.5t91 34.5t91 -36t34 -101q0 -63 -34 -99t-91 -36t-91 35.5t-34 99.5z" />
    <glyph glyph-name="eth" unicode="&#xf0;" horiz-adv-x="1001" 
d="M387 1569q38 -22 78.5 -49t83.5 -62l145 111l103 -129l-129 -97q81 -94 139 -207t89.5 -256t31.5 -327q0 -181 -50 -309.5t-146 -196t-234 -67.5q-132 0 -227 65t-146 180.5t-51 266.5q0 161 51.5 273.5t138.5 172t193 59.5q30 0 56 -5.5t49 -16t42 -27.5l6 4
q-15 65 -46.5 126.5t-76.5 119.5l-133 -100l-100 127l131 100q-28 26 -57 49.5t-58 44.5zM502 770q-53 0 -88.5 -31t-52.5 -94t-17 -160q0 -85 16.5 -148t51.5 -97.5t90 -34.5q84 0 119.5 72t35.5 217q0 64 -9 115t-28 87t-48 55t-70 19z" />
    <glyph glyph-name="ntilde" unicode="&#xf1;" horiz-adv-x="1026" 
d="M618 1141q142 0 218.5 -102.5t76.5 -297.5v-741h-266v664q0 118 -24 178.5t-91 60.5q-84 0 -117.5 -82t-33.5 -282v-539h-266v1120h211l28 -143h17q25 53 61 89.5t83 55.5t103 19zM197 1239q2 48 9.5 101t26.5 99.5t53.5 75.5t88.5 29q41 0 78 -15.5t72 -36.5t68 -36.5
t65 -15.5q28 0 42 28t21 78h146q-3 -148 -54 -226.5t-125 -78.5q-39 0 -78.5 16t-76.5 36.5t-69 36.5t-56 16q-22 0 -40.5 -25.5t-25.5 -81.5h-145z" />
    <glyph glyph-name="ograve" unicode="&#xf2;" horiz-adv-x="999" 
d="M926 563q0 -117 -23.5 -222t-74 -186t-132 -128t-198.5 -47q-109 0 -189 46t-132 126.5t-77.5 186t-25.5 224.5q0 169 44.5 299.5t139 204.5t244.5 74q129 0 224.5 -67t147.5 -195.5t52 -315.5zM344 559q0 -116 16.5 -195t51 -119t88.5 -40q55 0 88.5 39.5t49 119.5
t15.5 199q0 118 -15.5 196t-49 117t-88.5 39q-82 0 -119 -87t-37 -269zM502 1569q19 -43 50 -101.5t63.5 -113t54.5 -86.5v-27h-190q-27 24 -66.5 64t-82 86t-78.5 88.5t-56 70.5v19h305z" />
    <glyph glyph-name="oacute" unicode="&#xf3;" horiz-adv-x="999" 
d="M926 563q0 -117 -23.5 -222t-74 -186t-132 -128t-198.5 -47q-109 0 -189 46t-132 126.5t-77.5 186t-25.5 224.5q0 169 44.5 299.5t139 204.5t244.5 74q129 0 224.5 -67t147.5 -195.5t52 -315.5zM344 559q0 -116 16.5 -195t51 -119t88.5 -40q55 0 88.5 39.5t49 119.5
t15.5 199q0 118 -15.5 196t-49 117t-88.5 39q-82 0 -119 -87t-37 -269zM829 1569v-19q-21 -29 -54 -68t-72.5 -82t-80 -84.5t-76.5 -74.5h-190v27q36 54 66 105.5t55.5 100.5t46.5 95h305z" />
    <glyph glyph-name="ocircumflex" unicode="&#xf4;" horiz-adv-x="999" 
d="M926 563q0 -117 -23.5 -222t-74 -186t-132 -128t-198.5 -47q-109 0 -189 46t-132 126.5t-77.5 186t-25.5 224.5q0 169 44.5 299.5t139 204.5t244.5 74q129 0 224.5 -67t147.5 -195.5t52 -315.5zM344 559q0 -116 16.5 -195t51 -119t88.5 -40q55 0 88.5 39.5t49 119.5
t15.5 199q0 118 -15.5 196t-49 117t-88.5 39q-82 0 -119 -87t-37 -269zM622 1569q23 -45 53.5 -95.5t66 -103t73.5 -102.5v-27h-160q-35 31 -73.5 72.5t-82.5 93.5q-44 -52 -83 -96t-70 -70h-162v27q32 40 69.5 95.5t71.5 111t53 94.5h244z" />
    <glyph glyph-name="otilde" unicode="&#xf5;" horiz-adv-x="999" 
d="M926 563q0 -117 -23.5 -222t-74 -186t-132 -128t-198.5 -47q-109 0 -189 46t-132 126.5t-77.5 186t-25.5 224.5q0 169 44.5 299.5t139 204.5t244.5 74q129 0 224.5 -67t147.5 -195.5t52 -315.5zM344 559q0 -116 16.5 -195t51 -119t88.5 -40q55 0 88.5 39.5t49 119.5
t15.5 199q0 118 -15.5 196t-49 117t-88.5 39q-82 0 -119 -87t-37 -269zM164 1239q2 48 9.5 101t26.5 99.5t53.5 75.5t88.5 29q41 0 78 -15.5t72 -36.5t68 -36.5t65 -15.5q28 0 42 28t21 78h146q-3 -148 -54 -226.5t-125 -78.5q-39 0 -78.5 16t-76.5 36.5t-69 36.5t-56 16
q-22 0 -40.5 -25.5t-25.5 -81.5h-145z" />
    <glyph glyph-name="odieresis" unicode="&#xf6;" horiz-adv-x="999" 
d="M926 563q0 -117 -23.5 -222t-74 -186t-132 -128t-198.5 -47q-109 0 -189 46t-132 126.5t-77.5 186t-25.5 224.5q0 169 44.5 299.5t139 204.5t244.5 74q129 0 224.5 -67t147.5 -195.5t52 -315.5zM344 559q0 -116 16.5 -195t51 -119t88.5 -40q55 0 88.5 39.5t49 119.5
t15.5 199q0 118 -15.5 196t-49 117t-88.5 39q-82 0 -119 -87t-37 -269zM188 1395q0 68 34 102.5t89 34.5q57 0 91 -36t34 -101q0 -63 -34 -99t-91 -36q-55 0 -89 34.5t-34 100.5zM559 1395q0 68 34 102.5t91 34.5t91 -36t34 -101q0 -63 -34 -99t-91 -36t-91 35.5t-34 99.5z
" />
    <glyph glyph-name="divide" unicode="&#xf7;" horiz-adv-x="969" 
d="M68 614v217h833v-217h-833zM485 176q-66 0 -103.5 40.5t-37.5 117.5q0 75 36 115t105 40q66 0 101 -40t35 -115q0 -77 -36.5 -117.5t-99.5 -40.5zM485 954q-66 0 -103.5 40.5t-37.5 115.5q0 77 36 117.5t105 40.5q66 0 101 -40.5t35 -117.5q0 -75 -36.5 -115.5
t-99.5 -40.5z" />
    <glyph glyph-name="oslash" unicode="&#xf8;" horiz-adv-x="999" 
d="M926 563q0 -183 -50 -313.5t-145.5 -200t-232.5 -69.5q-51 0 -95.5 11t-85.5 34l-71 -150l-135 64l90 180q-67 91 -97 199.5t-30 244.5q0 277 111.5 427.5t316.5 150.5q52 0 97 -12.5t85 -38.5l64 124l133 -63l-76 -158q59 -75 90 -185t31 -245zM332 559q0 -52 3.5 -95
t10.5 -77l250 500q-19 21 -43 31t-53 10q-89 0 -128.5 -91.5t-39.5 -277.5zM668 563q0 48 -3 88t-8 72l-247 -496q17 -18 39.5 -27.5t48.5 -9.5q62 0 99 42t54 125t17 206z" />
    <glyph glyph-name="ugrave" unicode="&#xf9;" horiz-adv-x="1026" 
d="M911 1120v-1120h-209l-30 143h-15q-25 -54 -61 -90t-82.5 -54.5t-103.5 -18.5q-99 0 -165 49t-99 140.5t-33 219.5v731h266v-651q0 -126 25 -189t81 -63q67 0 101 39t46.5 114t12.5 181v569h266zM516 1569q19 -43 50 -101.5t63.5 -113t54.5 -86.5v-27h-190
q-27 24 -66.5 64t-82 86t-78.5 88.5t-56 70.5v19h305z" />
    <glyph glyph-name="uacute" unicode="&#xfa;" horiz-adv-x="1026" 
d="M911 1120v-1120h-209l-30 143h-15q-25 -54 -61 -90t-82.5 -54.5t-103.5 -18.5q-99 0 -165 49t-99 140.5t-33 219.5v731h266v-651q0 -126 25 -189t81 -63q67 0 101 39t46.5 114t12.5 181v569h266zM844 1569v-19q-21 -29 -54 -68t-72.5 -82t-80 -84.5t-76.5 -74.5h-190v27
q36 54 66 105.5t55.5 100.5t46.5 95h305z" />
    <glyph glyph-name="ucircumflex" unicode="&#xfb;" horiz-adv-x="1026" 
d="M911 1120v-1120h-209l-30 143h-15q-25 -54 -61 -90t-82.5 -54.5t-103.5 -18.5q-99 0 -165 49t-99 140.5t-33 219.5v731h266v-651q0 -126 25 -189t81 -63q67 0 101 39t46.5 114t12.5 181v569h266zM637 1569q23 -45 53.5 -95.5t66 -103t73.5 -102.5v-27h-160
q-35 31 -73.5 72.5t-82.5 93.5q-44 -52 -83 -96t-70 -70h-162v27q32 40 69.5 95.5t71.5 111t53 94.5h244z" />
    <glyph glyph-name="udieresis" unicode="&#xfc;" horiz-adv-x="1026" 
d="M911 1120v-1120h-209l-30 143h-15q-25 -54 -61 -90t-82.5 -54.5t-103.5 -18.5q-99 0 -165 49t-99 140.5t-33 219.5v731h266v-651q0 -126 25 -189t81 -63q67 0 101 39t46.5 114t12.5 181v569h266zM202 1395q0 68 34 102.5t89 34.5q57 0 91 -36t34 -101q0 -63 -34 -99
t-91 -36q-55 0 -89 34.5t-34 100.5zM573 1395q0 68 34 102.5t91 34.5t91 -36t34 -101q0 -63 -34 -99t-91 -36t-91 35.5t-34 99.5z" />
    <glyph glyph-name="yacute" unicode="&#xfd;" horiz-adv-x="909" 
d="M6 1120h279l131 -542q9 -37 17 -74.5t13.5 -72.5t8.5 -66h8q5 41 15 92.5t26 117.5l123 545h276l-334 -1229q-37 -138 -87.5 -222t-118.5 -122.5t-160 -38.5q-34 0 -65 5t-62 12v235q20 -6 40.5 -10t39.5 -4q41 0 66.5 16t45.5 59t43 124l17 67zM784 1569v-19
q-21 -29 -54 -68t-72.5 -82t-80 -84.5t-76.5 -74.5h-190v27q36 54 66 105.5t55.5 100.5t46.5 95h305z" />
    <glyph glyph-name="thorn" unicode="&#xfe;" horiz-adv-x="1024" 
d="M950 557q0 -180 -38.5 -309t-110.5 -198.5t-172 -69.5q-52 0 -98 18.5t-83.5 55.5t-66.5 93h-8q3 -43 5 -78.5t3.5 -63t1.5 -48.5v-449h-268v2048h266v-378q0 -52 -1.5 -103.5t-6.5 -101.5h8q35 66 71 102.5t77.5 51t91.5 14.5q158 0 243.5 -153t85.5 -431zM680 555
q0 185 -35.5 272.5t-107.5 87.5q-82 0 -119 -77.5t-37 -249.5v-56q0 -167 38 -244t118 -77q53 0 84.5 42.5t45 120t13.5 181.5z" />
    <glyph glyph-name="ydieresis" unicode="&#xff;" horiz-adv-x="909" 
d="M6 1120h279l131 -542q9 -37 17 -74.5t13.5 -72.5t8.5 -66h8q5 41 15 92.5t26 117.5l123 545h276l-334 -1229q-37 -138 -87.5 -222t-118.5 -122.5t-160 -38.5q-34 0 -65 5t-62 12v235q20 -6 40.5 -10t39.5 -4q41 0 66.5 16t45.5 59t43 124l17 67zM143 1395q0 68 34 102.5
t89 34.5q57 0 91 -36t34 -101q0 -63 -34 -99t-91 -36q-55 0 -89 34.5t-34 100.5zM514 1395q0 68 34 102.5t91 34.5t91 -36t34 -101q0 -63 -34 -99t-91 -36t-91 35.5t-34 99.5z" />
    <glyph glyph-name="Amacron" unicode="&#x100;" horiz-adv-x="1077" 
d="M778 0l-76 352h-325l-76 -352h-301l354 1462h363l360 -1462h-299zM659 596l-79 387q-8 48 -15.5 94t-14 88.5t-11.5 79.5q-3 -35 -9 -77t-14 -88t-18 -93l-78 -391h239zM821 1802v-194h-565v194h565z" />
    <glyph glyph-name="amacron" unicode="&#x101;" horiz-adv-x="950" 
d="M504 1141q163 0 248.5 -100.5t85.5 -299.5v-741h-195l-43 150h-6q-34 -57 -72.5 -95t-87.5 -56.5t-115 -18.5q-93 0 -150.5 50t-83.5 130t-26 170q0 175 97 265t276 97l139 6v45q0 92 -28.5 137.5t-93.5 45.5q-48 0 -105 -19t-125 -59l-74 199q76 46 167 70t192 24z
M571 520l-75 -4q-85 -4 -126.5 -47.5t-41.5 -126.5q0 -75 25.5 -112t74.5 -37q63 0 103 61t40 164v102zM774 1460v-194h-565v194h565z" />
    <glyph glyph-name="Abreve" unicode="&#x102;" horiz-adv-x="1077" 
d="M778 0l-76 352h-325l-76 -352h-301l354 1462h363l360 -1462h-299zM659 596l-79 387q-8 48 -15.5 94t-14 88.5t-11.5 79.5q-3 -35 -9 -77t-14 -88t-18 -93l-78 -391h239zM834 1917q0 -102 -39.5 -176.5t-107 -115t-152.5 -40.5q-130 0 -210.5 84t-82.5 248h162
q3 -49 18.5 -80.5t44 -47t70.5 -15.5q41 0 70.5 14.5t46.5 46t20 82.5h160z" />
    <glyph glyph-name="abreve" unicode="&#x103;" horiz-adv-x="950" 
d="M504 1141q163 0 248.5 -100.5t85.5 -299.5v-741h-195l-43 150h-6q-34 -57 -72.5 -95t-87.5 -56.5t-115 -18.5q-93 0 -150.5 50t-83.5 130t-26 170q0 175 97 265t276 97l139 6v45q0 92 -28.5 137.5t-93.5 45.5q-48 0 -105 -19t-125 -59l-74 199q76 46 167 70t192 24z
M571 520l-75 -4q-85 -4 -126.5 -47.5t-41.5 -126.5q0 -75 25.5 -112t74.5 -37q63 0 103 61t40 164v102zM787 1575q0 -102 -39.5 -176.5t-107 -115t-152.5 -40.5q-130 0 -210.5 84t-82.5 248h162q3 -49 18.5 -80.5t44 -47t70.5 -15.5q41 0 70.5 14.5t46.5 46t20 82.5h160z
" />
    <glyph glyph-name="Aogonek" unicode="&#x104;" horiz-adv-x="1077" 
d="M778 0l-76 352h-325l-76 -352h-301l354 1462h363l360 -1462h-299zM659 596l-79 387q-8 48 -15.5 94t-14 88.5t-11.5 79.5q-3 -35 -9 -77t-14 -88t-18 -93l-78 -391h239zM850 -209q0 -40 22 -65t64 -25q26 0 43 5.5t31 12.5v-172q-22 -10 -55 -18t-77 -8
q-118 0 -176.5 56.5t-58.5 156.5q0 48 18 99t57 101.5t101 96.5l141 -31q-66 -69 -88 -114t-22 -95z" />
    <glyph glyph-name="aogonek" unicode="&#x105;" horiz-adv-x="950" 
d="M504 1141q163 0 248.5 -100.5t85.5 -299.5v-741h-195l-43 150h-6q-34 -57 -72.5 -95t-87.5 -56.5t-115 -18.5q-93 0 -150.5 50t-83.5 130t-26 170q0 175 97 265t276 97l139 6v45q0 92 -28.5 137.5t-93.5 45.5q-48 0 -105 -19t-125 -59l-74 199q76 46 167 70t192 24z
M571 520l-75 -4q-85 -4 -126.5 -47.5t-41.5 -126.5q0 -75 25.5 -112t74.5 -37q63 0 103 61t40 164v102zM701 -209q0 -40 22 -65t64 -25q26 0 43 5.5t31 12.5v-172q-22 -10 -55 -18t-77 -8q-118 0 -176.5 56.5t-58.5 156.5q0 48 18 99t57 101.5t101 96.5l141 -31
q-66 -69 -88 -114t-22 -95z" />
    <glyph glyph-name="Cacute" unicode="&#x106;" horiz-adv-x="989" 
d="M633 1241q-64 0 -112 -38t-79.5 -107.5t-47 -163.5t-15.5 -205q0 -163 31 -275.5t91 -170.5t146 -58q68 0 129 23t121 55v-250q-63 -35 -135.5 -53t-155.5 -18q-165 0 -280.5 87.5t-176.5 255t-61 406.5q0 164 34.5 301.5t101.5 239t164.5 157.5t223.5 56q88 0 170 -22
t158 -68l-80 -232q-54 37 -109 58.5t-118 21.5zM917 1911v-19q-21 -29 -54 -68t-72.5 -82t-80 -84.5t-76.5 -74.5h-190v27q36 54 66 105.5t55.5 100.5t46.5 95h305z" />
    <glyph glyph-name="cacute" unicode="&#x107;" horiz-adv-x="817" 
d="M494 -20q-140 0 -233.5 62.5t-140 190t-46.5 322.5q0 170 45 302.5t139 208t240 75.5q83 0 149.5 -18.5t124.5 -55.5l-74 -213q-46 28 -90.5 41.5t-89.5 13.5q-55 0 -94 -40.5t-59.5 -119t-20.5 -194.5q0 -115 20.5 -192t60 -115.5t97.5 -38.5q57 0 115 21t113 61v-228
q-54 -43 -120.5 -63t-135.5 -20zM805 1569v-19q-21 -29 -54 -68t-72.5 -82t-80 -84.5t-76.5 -74.5h-190v27q36 54 66 105.5t55.5 100.5t46.5 95h305z" />
    <glyph glyph-name="Ccircumflex" unicode="&#x108;" horiz-adv-x="989" 
d="M633 1241q-64 0 -112 -38t-79.5 -107.5t-47 -163.5t-15.5 -205q0 -163 31 -275.5t91 -170.5t146 -58q68 0 129 23t121 55v-250q-63 -35 -135.5 -53t-155.5 -18q-165 0 -280.5 87.5t-176.5 255t-61 406.5q0 164 34.5 301.5t101.5 239t164.5 157.5t223.5 56q88 0 170 -22
t158 -68l-80 -232q-54 37 -109 58.5t-118 21.5zM710 1911q23 -45 53.5 -95.5t66 -103t73.5 -102.5v-27h-160q-35 31 -73.5 72.5t-82.5 93.5q-44 -52 -83 -96t-70 -70h-162v27q32 40 69.5 95.5t71.5 111t53 94.5h244z" />
    <glyph glyph-name="ccircumflex" unicode="&#x109;" horiz-adv-x="817" 
d="M494 -20q-140 0 -233.5 62.5t-140 190t-46.5 322.5q0 170 45 302.5t139 208t240 75.5q83 0 149.5 -18.5t124.5 -55.5l-74 -213q-46 28 -90.5 41.5t-89.5 13.5q-55 0 -94 -40.5t-59.5 -119t-20.5 -194.5q0 -115 20.5 -192t60 -115.5t97.5 -38.5q57 0 115 21t113 61v-228
q-54 -43 -120.5 -63t-135.5 -20zM598 1569q23 -45 53.5 -95.5t66 -103t73.5 -102.5v-27h-160q-35 31 -73.5 72.5t-82.5 93.5q-44 -52 -83 -96t-70 -70h-162v27q32 40 69.5 95.5t71.5 111t53 94.5h244z" />
    <glyph glyph-name="Cdot" unicode="&#x10a;" horiz-adv-x="989" 
d="M633 1241q-64 0 -112 -38t-79.5 -107.5t-47 -163.5t-15.5 -205q0 -163 31 -275.5t91 -170.5t146 -58q68 0 129 23t121 55v-250q-63 -35 -135.5 -53t-155.5 -18q-165 0 -280.5 87.5t-176.5 255t-61 406.5q0 164 34.5 301.5t101.5 239t164.5 157.5t223.5 56q88 0 170 -22
t158 -68l-80 -232q-54 37 -109 58.5t-118 21.5zM622 1903q76 0 111 -39.5t35 -114.5q0 -73 -36.5 -111.5t-109.5 -38.5q-70 0 -107.5 38.5t-37.5 111.5q0 77 35 115.5t110 38.5z" />
    <glyph glyph-name="cdot" unicode="&#x10b;" horiz-adv-x="817" 
d="M494 -20q-140 0 -233.5 62.5t-140 190t-46.5 322.5q0 170 45 302.5t139 208t240 75.5q83 0 149.5 -18.5t124.5 -55.5l-74 -213q-46 28 -90.5 41.5t-89.5 13.5q-55 0 -94 -40.5t-59.5 -119t-20.5 -194.5q0 -115 20.5 -192t60 -115.5t97.5 -38.5q57 0 115 21t113 61v-228
q-54 -43 -120.5 -63t-135.5 -20zM510 1561q76 0 111 -39.5t35 -114.5q0 -73 -36.5 -111.5t-109.5 -38.5q-70 0 -107.5 38.5t-37.5 111.5q0 77 35 115.5t110 38.5z" />
    <glyph glyph-name="Ccaron" unicode="&#x10c;" horiz-adv-x="989" 
d="M633 1241q-64 0 -112 -38t-79.5 -107.5t-47 -163.5t-15.5 -205q0 -163 31 -275.5t91 -170.5t146 -58q68 0 129 23t121 55v-250q-63 -35 -135.5 -53t-155.5 -18q-165 0 -280.5 87.5t-176.5 255t-61 406.5q0 164 34.5 301.5t101.5 239t164.5 157.5t223.5 56q88 0 170 -22
t158 -68l-80 -232q-54 37 -109 58.5t-118 21.5zM466 1583q-19 40 -53.5 95.5t-72.5 111t-68 94.5v27h162q34 -31 73 -73.5t80 -92.5q47 56 82.5 93.5t73.5 72.5h160v-27q-29 -39 -66 -93t-71 -109.5t-56 -98.5h-244z" />
    <glyph glyph-name="ccaron" unicode="&#x10d;" horiz-adv-x="817" 
d="M494 -20q-140 0 -233.5 62.5t-140 190t-46.5 322.5q0 170 45 302.5t139 208t240 75.5q83 0 149.5 -18.5t124.5 -55.5l-74 -213q-46 28 -90.5 41.5t-89.5 13.5q-55 0 -94 -40.5t-59.5 -119t-20.5 -194.5q0 -115 20.5 -192t60 -115.5t97.5 -38.5q57 0 115 21t113 61v-228
q-54 -43 -120.5 -63t-135.5 -20zM354 1241q-19 40 -53.5 95.5t-72.5 111t-68 94.5v27h162q34 -31 73 -73.5t80 -92.5q47 56 82.5 93.5t73.5 72.5h160v-27q-29 -39 -66 -93t-71 -109.5t-56 -98.5h-244z" />
    <glyph glyph-name="Dcaron" unicode="&#x10e;" horiz-adv-x="1145" 
d="M1057 758q0 -245 -67.5 -414t-197 -256.5t-317.5 -87.5h-344v1462h365q180 0 305.5 -81t190.5 -238t65 -385zM768 745q0 164 -31 269t-92.5 155t-152.5 50h-80v-973h61q152 0 223.5 123t71.5 376zM444 1583q-19 40 -53.5 95.5t-72.5 111t-68 94.5v27h162q34 -31 73 -73.5
t80 -92.5q47 56 82.5 93.5t73.5 72.5h160v-27q-29 -39 -66 -93t-71 -109.5t-56 -98.5h-244z" />
    <glyph glyph-name="dcaron" unicode="&#x10f;" horiz-adv-x="1024" 
d="M406 -20q-162 0 -247 154t-85 427q0 274 85 427t238 153q52 0 96.5 -18t82 -54.5t65.5 -91.5h10q-3 65 -5.5 111.5t-2.5 78.5v389h266v-1556h-213l-37 123h-16q-32 -50 -66.5 -81.5t-75.5 -46.5t-95 -15zM485 203q80 0 119 78t39 245v64q0 166 -37.5 242.5t-120.5 76.5
q-72 0 -106.5 -87.5t-34.5 -258.5q0 -181 36 -270.5t105 -89.5zM1282 1556v-22q-13 -50 -33.5 -104.5t-45 -106.5t-50.5 -94h-172v26q5 23 11.5 61.5t12.5 83.5t11 86.5t6 69.5h260z" />
    <glyph glyph-name="Dcroat" unicode="&#x110;" horiz-adv-x="1145" 
d="M496 1462q180 0 305.5 -81t190.5 -238t65 -385q0 -245 -67.5 -414t-197 -256.5t-317.5 -87.5h-344v649h-115v211h115v602h365zM492 1219h-80v-359h161v-211h-161v-403h61q152 0 223.5 123t71.5 376q0 164 -31 269t-92.5 155t-152.5 50z" />
    <glyph glyph-name="dcroat" unicode="&#x111;" horiz-adv-x="1024" 
d="M406 -20q-162 0 -247 151t-85 416q0 264 85 411.5t238 147.5q52 0 96.5 -18t82 -54t65.5 -92h10q-3 63 -5.5 111.5t-2.5 79.5v71h-188v191h188v161h266v-161h123v-191h-123v-1204h-213l-39 123h-14q-34 -50 -68 -81.5t-74.5 -46.5t-94.5 -15zM485 203q80 0 119 75t39 238
v53q0 158 -37.5 231.5t-120.5 73.5q-72 0 -106.5 -82t-34.5 -245q0 -172 36 -258t105 -86z" />
    <glyph glyph-name="Emacron" unicode="&#x112;" horiz-adv-x="874" 
d="M788 0h-657v1462h657v-239h-376v-344h350v-240h-350v-395h376v-244zM741 1802v-194h-565v194h565z" />
    <glyph glyph-name="emacron" unicode="&#x113;" horiz-adv-x="936" 
d="M479 1139q126 0 213.5 -62t132.5 -175.5t45 -268.5v-150h-534q2 -147 54 -216.5t159 -69.5q71 0 134.5 18.5t135.5 63.5v-222q-67 -40 -143 -58.5t-164 -18.5q-154 0 -251 69.5t-142 198t-45 305.5q0 189 45.5 319.5t135.5 198.5t224 68zM485 930q-66 0 -105 -59.5
t-42 -194.5h285q0 79 -16 136t-47 87.5t-75 30.5zM760 1460v-194h-565v194h565z" />
    <glyph glyph-name="Ebreve" unicode="&#x114;" horiz-adv-x="874" 
d="M788 0h-657v1462h657v-239h-376v-344h350v-240h-350v-395h376v-244zM754 1917q0 -102 -39.5 -176.5t-107 -115t-152.5 -40.5q-130 0 -210.5 84t-82.5 248h162q3 -49 18.5 -80.5t44 -47t70.5 -15.5q41 0 70.5 14.5t46.5 46t20 82.5h160z" />
    <glyph glyph-name="ebreve" unicode="&#x115;" horiz-adv-x="936" 
d="M479 1139q126 0 213.5 -62t132.5 -175.5t45 -268.5v-150h-534q2 -147 54 -216.5t159 -69.5q71 0 134.5 18.5t135.5 63.5v-222q-67 -40 -143 -58.5t-164 -18.5q-154 0 -251 69.5t-142 198t-45 305.5q0 189 45.5 319.5t135.5 198.5t224 68zM485 930q-66 0 -105 -59.5
t-42 -194.5h285q0 79 -16 136t-47 87.5t-75 30.5zM772 1575q0 -102 -39.5 -176.5t-107 -115t-152.5 -40.5q-130 0 -210.5 84t-82.5 248h162q3 -49 18.5 -80.5t44 -47t70.5 -15.5q41 0 70.5 14.5t46.5 46t20 82.5h160z" />
    <glyph glyph-name="Edotaccent" unicode="&#x116;" horiz-adv-x="874" 
d="M788 0h-657v1462h657v-239h-376v-344h350v-240h-350v-395h376v-244zM493 1903q76 0 111 -39.5t35 -114.5q0 -73 -36.5 -111.5t-109.5 -38.5q-70 0 -107.5 38.5t-37.5 111.5q0 77 35 115.5t110 38.5z" />
    <glyph glyph-name="edotaccent" unicode="&#x117;" horiz-adv-x="936" 
d="M479 1139q126 0 213.5 -62t132.5 -175.5t45 -268.5v-150h-534q2 -147 54 -216.5t159 -69.5q71 0 134.5 18.5t135.5 63.5v-222q-67 -40 -143 -58.5t-164 -18.5q-154 0 -251 69.5t-142 198t-45 305.5q0 189 45.5 319.5t135.5 198.5t224 68zM485 930q-66 0 -105 -59.5
t-42 -194.5h285q0 79 -16 136t-47 87.5t-75 30.5zM512 1561q76 0 111 -39.5t35 -114.5q0 -73 -36.5 -111.5t-109.5 -38.5q-70 0 -107.5 38.5t-37.5 111.5q0 77 35 115.5t110 38.5z" />
    <glyph glyph-name="Eogonek" unicode="&#x118;" horiz-adv-x="874" 
d="M788 0h-657v1462h657v-239h-376v-344h350v-240h-350v-395h376v-244zM631 -209q0 -40 22 -65t64 -25q26 0 43 5.5t31 12.5v-172q-22 -10 -55 -18t-77 -8q-118 0 -176.5 56.5t-58.5 156.5q0 48 18 99t57 101.5t101 96.5l141 -31q-66 -69 -88 -114t-22 -95z" />
    <glyph glyph-name="eogonek" unicode="&#x119;" horiz-adv-x="936" 
d="M659 -215q0 -38 22 -58t56 -20q20 0 47.5 5.5t40.5 13.5v-181q-31 -12 -71.5 -17t-75.5 -5q-117 0 -171 57.5t-54 157.5q0 48 17 93.5t51.5 88t86.5 82.5l211 55q-60 -60 -95 -109.5t-50 -89.5t-15 -73zM479 1139q126 0 213.5 -62t132.5 -175.5t45 -268.5v-150h-534
q2 -147 54 -216.5t159 -69.5q71 0 134.5 18.5t135.5 63.5v-222q-67 -40 -143 -58.5t-164 -18.5q-154 0 -251 69.5t-142 198t-45 305.5q0 189 45.5 319.5t135.5 198.5t224 68zM485 930q-66 0 -105 -59.5t-42 -194.5h285q0 79 -16 136t-47 87.5t-75 30.5z" />
    <glyph glyph-name="Ecaron" unicode="&#x11a;" horiz-adv-x="874" 
d="M788 0h-657v1462h657v-239h-376v-344h350v-240h-350v-395h376v-244zM337 1583q-19 40 -53.5 95.5t-72.5 111t-68 94.5v27h162q34 -31 73 -73.5t80 -92.5q47 56 82.5 93.5t73.5 72.5h160v-27q-29 -39 -66 -93t-71 -109.5t-56 -98.5h-244z" />
    <glyph glyph-name="ecaron" unicode="&#x11b;" horiz-adv-x="936" 
d="M479 1139q126 0 213.5 -62t132.5 -175.5t45 -268.5v-150h-534q2 -147 54 -216.5t159 -69.5q71 0 134.5 18.5t135.5 63.5v-222q-67 -40 -143 -58.5t-164 -18.5q-154 0 -251 69.5t-142 198t-45 305.5q0 189 45.5 319.5t135.5 198.5t224 68zM485 930q-66 0 -105 -59.5
t-42 -194.5h285q0 79 -16 136t-47 87.5t-75 30.5zM356 1241q-19 40 -53.5 95.5t-72.5 111t-68 94.5v27h162q34 -31 73 -73.5t80 -92.5q47 56 82.5 93.5t73.5 72.5h160v-27q-29 -39 -66 -93t-71 -109.5t-56 -98.5h-244z" />
    <glyph glyph-name="Gcircumflex" unicode="&#x11c;" horiz-adv-x="1176" 
d="M614 823h457v-762q-104 -41 -213.5 -61t-222.5 -20q-181 0 -302.5 92.5t-183 261.5t-61.5 401q0 229 69.5 396.5t203.5 259.5t327 92q106 0 198 -25.5t165 -66.5l-82 -232q-63 40 -130.5 61t-140.5 21q-105 0 -176 -59.5t-107 -174t-36 -280.5q0 -153 29.5 -266.5
t90 -175.5t154.5 -62q39 0 75.5 6t68.5 17v340h-183v237zM780 1911q23 -45 53.5 -95.5t66 -103t73.5 -102.5v-27h-160q-35 31 -73.5 72.5t-82.5 93.5q-44 -52 -83 -96t-70 -70h-162v27q32 40 69.5 95.5t71.5 111t53 94.5h244z" />
    <glyph glyph-name="gcircumflex" unicode="&#x11d;" horiz-adv-x="938" 
d="M402 -492q-186 0 -288 82t-102 232q0 98 56.5 168t149.5 96q-47 20 -78 62.5t-31 98.5q0 64 28.5 106t77.5 86q-63 41 -101 128t-38 191q0 120 43.5 205t127 129.5t203.5 44.5q37 0 64.5 -3.5t48 -9t35.5 -11.5h324v-160l-132 -29q19 -37 27 -78t8 -90q0 -180 -97 -279
t-275 -99q-55 0 -81 9q-16 -15 -30.5 -36t-14.5 -53q0 -24 12.5 -40.5t38.5 -24.5t65 -8h186q134 0 206 -75t72 -229q0 -199 -128.5 -306t-376.5 -107zM421 -293q81 0 133 20t77 58.5t25 93.5q0 44 -13 66.5t-44.5 31t-86.5 8.5h-146q-31 0 -55 -15.5t-37 -46.5t-13 -80
q0 -67 43 -101.5t117 -34.5zM452 563q51 0 78 49t27 144q0 101 -27 149.5t-79 48.5t-79 -49.5t-27 -147.5q0 -95 26 -144.5t81 -49.5zM593 1569q23 -45 53.5 -95.5t66 -103t73.5 -102.5v-27h-160q-35 31 -73.5 72.5t-82.5 93.5q-44 -52 -83 -96t-70 -70h-162v27
q32 40 69.5 95.5t71.5 111t53 94.5h244z" />
    <glyph glyph-name="Gbreve" unicode="&#x11e;" horiz-adv-x="1176" 
d="M614 823h457v-762q-104 -41 -213.5 -61t-222.5 -20q-181 0 -302.5 92.5t-183 261.5t-61.5 401q0 229 69.5 396.5t203.5 259.5t327 92q106 0 198 -25.5t165 -66.5l-82 -232q-63 40 -130.5 61t-140.5 21q-105 0 -176 -59.5t-107 -174t-36 -280.5q0 -153 29.5 -266.5
t90 -175.5t154.5 -62q39 0 75.5 6t68.5 17v340h-183v237zM953 1917q0 -102 -39.5 -176.5t-107 -115t-152.5 -40.5q-130 0 -210.5 84t-82.5 248h162q3 -49 18.5 -80.5t44 -47t70.5 -15.5q41 0 70.5 14.5t46.5 46t20 82.5h160z" />
    <glyph glyph-name="gbreve" unicode="&#x11f;" horiz-adv-x="938" 
d="M402 -492q-186 0 -288 82t-102 232q0 98 56.5 168t149.5 96q-47 20 -78 62.5t-31 98.5q0 64 28.5 106t77.5 86q-63 41 -101 128t-38 191q0 120 43.5 205t127 129.5t203.5 44.5q37 0 64.5 -3.5t48 -9t35.5 -11.5h324v-160l-132 -29q19 -37 27 -78t8 -90q0 -180 -97 -279
t-275 -99q-55 0 -81 9q-16 -15 -30.5 -36t-14.5 -53q0 -24 12.5 -40.5t38.5 -24.5t65 -8h186q134 0 206 -75t72 -229q0 -199 -128.5 -306t-376.5 -107zM421 -293q81 0 133 20t77 58.5t25 93.5q0 44 -13 66.5t-44.5 31t-86.5 8.5h-146q-31 0 -55 -15.5t-37 -46.5t-13 -80
q0 -67 43 -101.5t117 -34.5zM452 563q51 0 78 49t27 144q0 101 -27 149.5t-79 48.5t-79 -49.5t-27 -147.5q0 -95 26 -144.5t81 -49.5zM765 1575q0 -102 -39.5 -176.5t-107 -115t-152.5 -40.5q-130 0 -210.5 84t-82.5 248h162q3 -49 18.5 -80.5t44 -47t70.5 -15.5
q41 0 70.5 14.5t46.5 46t20 82.5h160z" />
    <glyph glyph-name="Gdot" unicode="&#x120;" horiz-adv-x="1176" 
d="M614 823h457v-762q-104 -41 -213.5 -61t-222.5 -20q-181 0 -302.5 92.5t-183 261.5t-61.5 401q0 229 69.5 396.5t203.5 259.5t327 92q106 0 198 -25.5t165 -66.5l-82 -232q-63 40 -130.5 61t-140.5 21q-105 0 -176 -59.5t-107 -174t-36 -280.5q0 -153 29.5 -266.5
t90 -175.5t154.5 -62q39 0 75.5 6t68.5 17v340h-183v237zM692 1903q76 0 111 -39.5t35 -114.5q0 -73 -36.5 -111.5t-109.5 -38.5q-70 0 -107.5 38.5t-37.5 111.5q0 77 35 115.5t110 38.5z" />
    <glyph glyph-name="gdot" unicode="&#x121;" horiz-adv-x="938" 
d="M402 -492q-186 0 -288 82t-102 232q0 98 56.5 168t149.5 96q-47 20 -78 62.5t-31 98.5q0 64 28.5 106t77.5 86q-63 41 -101 128t-38 191q0 120 43.5 205t127 129.5t203.5 44.5q37 0 64.5 -3.5t48 -9t35.5 -11.5h324v-160l-132 -29q19 -37 27 -78t8 -90q0 -180 -97 -279
t-275 -99q-55 0 -81 9q-16 -15 -30.5 -36t-14.5 -53q0 -24 12.5 -40.5t38.5 -24.5t65 -8h186q134 0 206 -75t72 -229q0 -199 -128.5 -306t-376.5 -107zM421 -293q81 0 133 20t77 58.5t25 93.5q0 44 -13 66.5t-44.5 31t-86.5 8.5h-146q-31 0 -55 -15.5t-37 -46.5t-13 -80
q0 -67 43 -101.5t117 -34.5zM452 563q51 0 78 49t27 144q0 101 -27 149.5t-79 48.5t-79 -49.5t-27 -147.5q0 -95 26 -144.5t81 -49.5zM492 1561q76 0 111 -39.5t35 -114.5q0 -73 -36.5 -111.5t-109.5 -38.5q-70 0 -107.5 38.5t-37.5 111.5q0 77 35 115.5t110 38.5z" />
    <glyph glyph-name="uni0122" unicode="&#x122;" horiz-adv-x="1176" 
d="M614 823h457v-762q-104 -41 -213.5 -61t-222.5 -20q-181 0 -302.5 92.5t-183 261.5t-61.5 401q0 229 69.5 396.5t203.5 259.5t327 92q106 0 198 -25.5t165 -66.5l-82 -232q-63 40 -130.5 61t-140.5 21q-105 0 -176 -59.5t-107 -174t-36 -280.5q0 -153 29.5 -266.5
t90 -175.5t154.5 -62q39 0 75.5 6t68.5 17v340h-183v237zM798 -125v-22q-15 -52 -36 -106t-46 -105t-53 -95h-172v27q10 35 20 90.5t17.5 112.5t9.5 98h260z" />
    <glyph glyph-name="uni0123" unicode="&#x123;" horiz-adv-x="938" 
d="M667 1569v-27q-12 -52 -23.5 -106.5t-19.5 -105t-10 -89.5h-258v23q13 49 33.5 102t47 105t56.5 98h174zM402 -492q-186 0 -288 82t-102 232q0 98 56.5 168t149.5 96q-47 20 -78 62.5t-31 98.5q0 64 28.5 106t77.5 86q-63 41 -101 128t-38 191q0 120 43.5 205t127 129.5
t203.5 44.5q37 0 64.5 -3.5t48 -9t35.5 -11.5h324v-160l-132 -29q19 -37 27 -78t8 -90q0 -180 -97 -279t-275 -99q-55 0 -81 9q-16 -15 -30.5 -36t-14.5 -53q0 -24 12.5 -40.5t38.5 -24.5t65 -8h186q134 0 206 -75t72 -229q0 -199 -128.5 -306t-376.5 -107zM421 -293
q81 0 133 20t77 58.5t25 93.5q0 44 -13 66.5t-44.5 31t-86.5 8.5h-146q-31 0 -55 -15.5t-37 -46.5t-13 -80q0 -67 43 -101.5t117 -34.5zM452 563q51 0 78 49t27 144q0 101 -27 149.5t-79 48.5t-79 -49.5t-27 -147.5q0 -95 26 -144.5t81 -49.5z" />
    <glyph glyph-name="Hcircumflex" unicode="&#x124;" horiz-adv-x="1186" 
d="M1055 0h-281v639h-362v-639h-281v1462h281v-579h362v579h281v-1462zM717 1911q23 -45 53.5 -95.5t66 -103t73.5 -102.5v-27h-160q-35 31 -73.5 72.5t-82.5 93.5q-44 -52 -83 -96t-70 -70h-162v27q32 40 69.5 95.5t71.5 111t53 94.5h244z" />
    <glyph glyph-name="hcircumflex" unicode="&#x125;" horiz-adv-x="1026" 
d="M381 1556v-346q0 -60 -5 -118.5t-16 -114.5h17q22 53 57 89.5t81.5 55.5t102.5 19q97 0 162.5 -46.5t99 -136.5t33.5 -219v-739h-266v664q0 122 -26 179.5t-82 57.5q-60 0 -94.5 -38.5t-49 -118.5t-14.5 -205v-539h-266v1556h266zM370 2005q23 -45 53.5 -95.5t66 -103
t73.5 -102.5v-27h-160q-35 31 -73.5 72.5t-82.5 93.5q-44 -52 -83 -96t-70 -70h-162v27q32 40 69.5 95.5t71.5 111t53 94.5h244z" />
    <glyph glyph-name="Hbar" unicode="&#x126;" horiz-adv-x="1186" 
d="M133 0v1075h-139v193h139v194h279v-194h364v194h281v-194h137v-193h-137v-1075h-281v639h-364v-639h-279zM412 883h364v192h-364v-192z" />
    <glyph glyph-name="hbar" unicode="&#x127;" horiz-adv-x="1026" 
d="M381 1556v-163h203v-191h-203v-72q0 -37 -5 -83.5t-16 -102.5h15q23 54 58 90t81 54t102 18q98 0 164 -46.5t99.5 -135.5t33.5 -217v-707h-268v629q0 123 -26 181t-82 58q-57 0 -91.5 -34.5t-49.5 -114.5t-15 -215v-504h-268v1202h-117v191h117v163h268z" />
    <glyph glyph-name="Itilde" unicode="&#x128;" horiz-adv-x="543" 
d="M131 0v1462h281v-1462h-281zM-64 1581q2 48 9.5 101t26.5 99.5t53.5 75.5t88.5 29q41 0 78 -15.5t72 -36.5t68 -36.5t65 -15.5q28 0 42 28t21 78h146q-3 -148 -54 -226.5t-125 -78.5q-39 0 -78.5 16t-76.5 36.5t-69 36.5t-56 16q-22 0 -40.5 -25.5t-25.5 -81.5h-145z" />
    <glyph glyph-name="itilde" unicode="&#x129;" horiz-adv-x="500" 
d="M383 0h-266v1120h266v-1120zM-88 1239q2 48 9.5 101t26.5 99.5t53.5 75.5t88.5 29q41 0 78 -15.5t72 -36.5t68 -36.5t65 -15.5q28 0 42 28t21 78h146q-3 -148 -54 -226.5t-125 -78.5q-39 0 -78.5 16t-76.5 36.5t-69 36.5t-56 16q-22 0 -40.5 -25.5t-25.5 -81.5h-145z" />
    <glyph glyph-name="Imacron" unicode="&#x12a;" horiz-adv-x="543" 
d="M131 0v1462h281v-1462h-281zM552 1802v-194h-565v194h565z" />
    <glyph glyph-name="imacron" unicode="&#x12b;" horiz-adv-x="500" 
d="M383 0h-266v1120h266v-1120zM530 1460v-194h-565v194h565z" />
    <glyph glyph-name="Ibreve" unicode="&#x12c;" horiz-adv-x="543" 
d="M131 0v1462h281v-1462h-281zM565 1917q0 -102 -39.5 -176.5t-107 -115t-152.5 -40.5q-130 0 -210.5 84t-82.5 248h162q3 -49 18.5 -80.5t44 -47t70.5 -15.5q41 0 70.5 14.5t46.5 46t20 82.5h160z" />
    <glyph glyph-name="ibreve" unicode="&#x12d;" horiz-adv-x="500" 
d="M383 0h-266v1120h266v-1120zM543 1575q0 -102 -39.5 -176.5t-107 -115t-152.5 -40.5q-130 0 -210.5 84t-82.5 248h162q3 -49 18.5 -80.5t44 -47t70.5 -15.5q41 0 70.5 14.5t46.5 46t20 82.5h160z" />
    <glyph glyph-name="Iogonek" unicode="&#x12e;" horiz-adv-x="543" 
d="M131 0v1462h281v-1462h-281zM295 -209q0 -40 22 -65t64 -25q26 0 43 5.5t31 12.5v-172q-22 -10 -55 -18t-77 -8q-118 0 -176.5 56.5t-58.5 156.5q0 48 18 99t57 101.5t101 96.5l141 -31q-66 -69 -88 -114t-22 -95z" />
    <glyph glyph-name="iogonek" unicode="&#x12f;" horiz-adv-x="500" 
d="M383 1120v-1120h-266v1120h266zM250 1561q75 0 110 -39.5t35 -114.5q0 -73 -36.5 -111.5t-108.5 -38.5q-70 0 -108 38.5t-38 111.5q0 77 35.5 115.5t110.5 38.5zM221 -209q0 -40 22 -65t64 -25q26 0 43 5.5t31 12.5v-172q-22 -10 -55 -18t-77 -8q-118 0 -176.5 56.5
t-58.5 156.5q0 48 18 99t57 101.5t101 96.5l141 -31q-66 -69 -88 -114t-22 -95z" />
    <glyph glyph-name="Idotaccent" unicode="&#x130;" horiz-adv-x="543" 
d="M131 0v1462h281v-1462h-281zM272 1903q76 0 111 -39.5t35 -114.5q0 -73 -36.5 -111.5t-109.5 -38.5q-70 0 -107.5 38.5t-37.5 111.5q0 77 35 115.5t110 38.5z" />
    <glyph glyph-name="dotlessi" unicode="&#x131;" horiz-adv-x="500" 
d="M383 0h-266v1120h266v-1120z" />
    <glyph glyph-name="IJ" unicode="&#x132;" horiz-adv-x="1084" 
d="M131 0v1462h281v-1462h-281zM584 -434q-41 0 -81 5t-75 17v240q25 -9 53 -15t60 -6q50 0 79.5 23.5t42.5 79.5t13 153v1399h279v-1394q0 -190 -43 -300t-126 -156t-202 -46z" />
    <glyph glyph-name="ij" unicode="&#x133;" horiz-adv-x="999" 
d="M383 1120v-1120h-266v1120h266zM250 1561q75 0 110 -39.5t35 -114.5q0 -73 -36.5 -111.5t-108.5 -38.5q-70 0 -108 38.5t-38 111.5q0 77 35.5 115.5t110.5 38.5zM586 -492q-37 0 -73 5.5t-70 17.5v229q21 -9 42.5 -13.5t41.5 -4.5q46 0 68 37.5t22 114.5v1226h266v-1241
q0 -127 -35 -208.5t-101.5 -121t-160.5 -41.5zM604 1407q0 77 35.5 115.5t110.5 38.5t110 -39.5t35 -114.5q0 -73 -36.5 -111.5t-108.5 -38.5q-70 0 -108 38.5t-38 111.5z" />
    <glyph glyph-name="Jcircumflex" unicode="&#x134;" horiz-adv-x="541" 
d="M41 -434q-41 0 -81 5t-75 17v240q25 -9 53 -15t60 -6q50 0 79.5 23.5t42.5 79.5t13 153v1399h279v-1394q0 -190 -43 -300t-126 -156t-202 -46zM395 1911q23 -45 53.5 -95.5t66 -103t73.5 -102.5v-27h-160q-35 31 -73.5 72.5t-82.5 93.5q-44 -52 -83 -96t-70 -70h-162v27
q32 40 69.5 95.5t71.5 111t53 94.5h244z" />
    <glyph glyph-name="jcircumflex" unicode="&#x135;" horiz-adv-x="500" 
d="M86 -492q-32 0 -76 7t-67 16v229q21 -9 42.5 -13.5t41.5 -4.5q46 0 68 35.5t22 107.5v1235h266v-1241q0 -117 -34 -200t-100 -127t-163 -44zM373 1569q23 -45 53.5 -95.5t66 -103t73.5 -102.5v-27h-160q-35 31 -73.5 72.5t-82.5 93.5q-44 -52 -83 -96t-70 -70h-162v27
q32 40 69.5 95.5t71.5 111t53 94.5h244z" />
    <glyph glyph-name="uni0136" unicode="&#x136;" horiz-adv-x="1047" 
d="M1061 0h-311l-248 596l-90 -82v-514h-281v1462h281v-674q9 39 32.5 87.5t55.5 109.5l256 477h301l-357 -651zM719 -125v-22q-15 -52 -36 -106t-46 -105t-53 -95h-172v27q10 35 20 90.5t17.5 112.5t9.5 98h260z" />
    <glyph glyph-name="uni0137" unicode="&#x137;" horiz-adv-x="969" 
d="M381 1556v-677q0 -71 -2 -139t-10 -134h8q18 44 39.5 82.5t38.5 69.5l217 362h286l-290 -458l305 -662h-291l-197 463l-104 -103v-360h-266v1556h266zM659 -125v-22q-15 -52 -36 -106t-46 -105t-53 -95h-172v27q10 35 20 90.5t17.5 112.5t9.5 98h260z" />
    <glyph glyph-name="kgreenlandic" unicode="&#x138;" horiz-adv-x="969" 
d="M958 1120l-290 -458l305 -662h-291l-197 463l-104 -103v-360h-266v1120h266v-241q0 -73 -2 -140.5t-10 -132.5h8q18 40 37.5 77t36.5 65l221 372h286z" />
    <glyph glyph-name="Lacute" unicode="&#x139;" horiz-adv-x="831" 
d="M131 0v1462h281v-1218h389v-244h-670zM604 1911v-19q-21 -29 -54 -68t-72.5 -82t-80 -84.5t-76.5 -74.5h-190v27q36 54 66 105.5t55.5 100.5t46.5 95h305z" />
    <glyph glyph-name="lacute" unicode="&#x13a;" horiz-adv-x="496" 
d="M381 0h-266v1556h266v-1556zM580 2003v-19q-21 -29 -54 -68t-72.5 -82t-80 -84.5t-76.5 -74.5h-190v27q36 54 66 105.5t55.5 100.5t46.5 95h305z" />
    <glyph glyph-name="uni013B" unicode="&#x13b;" horiz-adv-x="831" 
d="M131 0v1462h281v-1218h389v-244h-670zM614 -125v-22q-15 -52 -36 -106t-46 -105t-53 -95h-172v27q10 35 20 90.5t17.5 112.5t9.5 98h260z" />
    <glyph glyph-name="uni013C" unicode="&#x13c;" horiz-adv-x="496" 
d="M381 0h-266v1556h266v-1556zM395 -125v-22q-15 -52 -36 -106t-46 -105t-53 -95h-172v27q10 35 20 90.5t17.5 112.5t9.5 98h260z" />
    <glyph glyph-name="Lcaron" unicode="&#x13d;" horiz-adv-x="831" 
d="M131 0v1462h281v-1218h389v-244h-670zM886 1460v-22q-13 -50 -33.5 -104.5t-45 -106.5t-50.5 -94h-172v26q5 23 11.5 61.5t12.5 83.5t11 86.5t6 69.5h260z" />
    <glyph glyph-name="lcaron" unicode="&#x13e;" horiz-adv-x="496" 
d="M381 0h-266v1556h266v-1556zM751 1556v-22q-13 -50 -33.5 -104.5t-45 -106.5t-50.5 -94h-172v26q5 23 11.5 61.5t12.5 83.5t11 86.5t6 69.5h260z" />
    <glyph glyph-name="Ldot" unicode="&#x13f;" horiz-adv-x="831" 
d="M131 0v1462h281v-1218h389v-244h-670zM708 953q76 0 111 -39.5t35 -114.5q0 -73 -36.5 -111.5t-109.5 -38.5q-70 0 -107.5 38.5t-37.5 111.5q0 77 35 115.5t110 38.5z" />
    <glyph glyph-name="ldot" unicode="&#x140;" horiz-adv-x="694" 
d="M381 0h-266v1556h266v-1556zM598 949q76 0 111 -39.5t35 -114.5q0 -73 -36.5 -111.5t-109.5 -38.5q-70 0 -107.5 38.5t-37.5 111.5q0 77 35 115.5t110 38.5z" />
    <glyph glyph-name="Lslash" unicode="&#x141;" horiz-adv-x="868" 
d="M168 0v492l-76 -52l-131 164l207 158v700h278v-497l168 120l129 -167l-297 -222v-452h390v-244h-668z" />
    <glyph glyph-name="lslash" unicode="&#x142;" horiz-adv-x="584" 
d="M160 0v535l-80 -64l-131 168l211 166v751h266v-552l80 61l131 -166l-211 -168v-731h-266z" />
    <glyph glyph-name="Nacute" unicode="&#x143;" horiz-adv-x="1273" 
d="M1143 0h-330l-428 1020h-8q6 -71 9.5 -133.5t5 -114.5t1.5 -94v-678h-262v1462h328l426 -997h8q-4 69 -7 128.5t-5 110.5t-2 93v665h264v-1462zM967 1911v-19q-21 -29 -54 -68t-72.5 -82t-80 -84.5t-76.5 -74.5h-190v27q36 54 66 105.5t55.5 100.5t46.5 95h305z" />
    <glyph glyph-name="nacute" unicode="&#x144;" horiz-adv-x="1026" 
d="M618 1141q142 0 218.5 -102.5t76.5 -297.5v-741h-266v664q0 118 -24 178.5t-91 60.5q-84 0 -117.5 -82t-33.5 -282v-539h-266v1120h211l28 -143h17q25 53 61 89.5t83 55.5t103 19zM862 1569v-19q-21 -29 -54 -68t-72.5 -82t-80 -84.5t-76.5 -74.5h-190v27q36 54 66 105.5
t55.5 100.5t46.5 95h305z" />
    <glyph glyph-name="uni0145" unicode="&#x145;" horiz-adv-x="1273" 
d="M1143 0h-330l-428 1020h-8q6 -71 9.5 -133.5t5 -114.5t1.5 -94v-678h-262v1462h328l426 -997h8q-4 69 -7 128.5t-5 110.5t-2 93v665h264v-1462zM782 -125v-22q-15 -52 -36 -106t-46 -105t-53 -95h-172v27q10 35 20 90.5t17.5 112.5t9.5 98h260z" />
    <glyph glyph-name="uni0146" unicode="&#x146;" horiz-adv-x="1026" 
d="M618 1141q142 0 218.5 -102.5t76.5 -297.5v-741h-266v664q0 118 -24 178.5t-91 60.5q-84 0 -117.5 -82t-33.5 -282v-539h-266v1120h211l28 -143h17q25 53 61 89.5t83 55.5t103 19zM659 -125v-22q-15 -52 -36 -106t-46 -105t-53 -95h-172v27q10 35 20 90.5t17.5 112.5
t9.5 98h260z" />
    <glyph glyph-name="Ncaron" unicode="&#x147;" horiz-adv-x="1273" 
d="M1143 0h-330l-428 1020h-8q6 -71 9.5 -133.5t5 -114.5t1.5 -94v-678h-262v1462h328l426 -997h8q-4 69 -7 128.5t-5 110.5t-2 93v665h264v-1462zM516 1583q-19 40 -53.5 95.5t-72.5 111t-68 94.5v27h162q34 -31 73 -73.5t80 -92.5q47 56 82.5 93.5t73.5 72.5h160v-27
q-29 -39 -66 -93t-71 -109.5t-56 -98.5h-244z" />
    <glyph glyph-name="ncaron" unicode="&#x148;" horiz-adv-x="1026" 
d="M618 1141q142 0 218.5 -102.5t76.5 -297.5v-741h-266v664q0 118 -24 178.5t-91 60.5q-84 0 -117.5 -82t-33.5 -282v-539h-266v1120h211l28 -143h17q25 53 61 89.5t83 55.5t103 19zM411 1241q-19 40 -53.5 95.5t-72.5 111t-68 94.5v27h162q34 -31 73 -73.5t80 -92.5
q47 56 82.5 93.5t73.5 72.5h160v-27q-29 -39 -66 -93t-71 -109.5t-56 -98.5h-244z" />
    <glyph glyph-name="napostrophe" unicode="&#x149;" horiz-adv-x="1266" 
d="M858 1141q142 0 218.5 -102.5t76.5 -297.5v-741h-266v664q0 118 -24 178.5t-91 60.5q-84 0 -117.5 -82t-33.5 -282v-539h-266v1120h211l28 -143h17q25 53 61 89.5t83 55.5t103 19zM351 1462l12 -22q-16 -101 -37.5 -194t-47 -177t-56.5 -160h-217q13 57 25.5 130.5
t24 151t19.5 148.5t12 123h265z" />
    <glyph glyph-name="Eng" unicode="&#x14a;" horiz-adv-x="1274" 
d="M786 -434q-41 0 -79.5 5t-75.5 17v240q25 -9 53.5 -15t60.5 -6q48 0 77.5 21.5t43 66.5t13.5 113l-496 1047h-6q5 -71 8 -132.5t4.5 -113.5t1.5 -94v-715h-260v1462h328l426 -903h6q-4 68 -6.5 127t-4 110.5t-1.5 94.5v571h264v-1411q0 -163 -37.5 -271t-116.5 -161
t-203 -53z" />
    <glyph glyph-name="eng" unicode="&#x14b;" horiz-adv-x="1026" 
d="M616 -492q-35 0 -71.5 5.5t-71.5 17.5v229q23 -9 44 -13.5t40 -4.5q46 0 68 37.5t22 114.5v770q0 116 -25.5 176.5t-84.5 60.5q-52 0 -87 -30.5t-52 -109t-17 -222.5v-539h-266v1120h211l28 -143h15q26 53 62 89.5t83 55.5t104 19q100 0 165 -49.5t97.5 -142t32.5 -220.5
v-850q0 -103 -30.5 -187.5t-96 -134t-170.5 -49.5z" />
    <glyph glyph-name="Omacron" unicode="&#x14c;" horiz-adv-x="1214" 
d="M1126 733q0 -174 -32 -313.5t-96 -237.5t-161.5 -150t-228.5 -52q-132 0 -230 52.5t-162 151.5t-96 238t-32 313q0 246 59 413t175 252t286 85q177 0 291.5 -91t170.5 -259.5t56 -401.5zM379 733q0 -168 26 -280.5t77 -169t126 -56.5q76 0 126.5 55t76 167t25.5 284
q0 257 -57 382.5t-171 125.5q-75 0 -126 -57t-77 -170t-26 -281zM891 1802v-194h-565v194h565z" />
    <glyph glyph-name="omacron" unicode="&#x14d;" horiz-adv-x="999" 
d="M926 563q0 -117 -23.5 -222t-74 -186t-132 -128t-198.5 -47q-109 0 -189 46t-132 126.5t-77.5 186t-25.5 224.5q0 169 44.5 299.5t139 204.5t244.5 74q129 0 224.5 -67t147.5 -195.5t52 -315.5zM344 559q0 -116 16.5 -195t51 -119t88.5 -40q55 0 88.5 39.5t49 119.5
t15.5 199q0 118 -15.5 196t-49 117t-88.5 39q-82 0 -119 -87t-37 -269zM782 1460v-194h-565v194h565z" />
    <glyph glyph-name="Obreve" unicode="&#x14e;" horiz-adv-x="1214" 
d="M1126 733q0 -174 -32 -313.5t-96 -237.5t-161.5 -150t-228.5 -52q-132 0 -230 52.5t-162 151.5t-96 238t-32 313q0 246 59 413t175 252t286 85q177 0 291.5 -91t170.5 -259.5t56 -401.5zM379 733q0 -168 26 -280.5t77 -169t126 -56.5q76 0 126.5 55t76 167t25.5 284
q0 257 -57 382.5t-171 125.5q-75 0 -126 -57t-77 -170t-26 -281zM903 1917q0 -102 -39.5 -176.5t-107 -115t-152.5 -40.5q-130 0 -210.5 84t-82.5 248h162q3 -49 18.5 -80.5t44 -47t70.5 -15.5q41 0 70.5 14.5t46.5 46t20 82.5h160z" />
    <glyph glyph-name="obreve" unicode="&#x14f;" horiz-adv-x="999" 
d="M926 563q0 -117 -23.5 -222t-74 -186t-132 -128t-198.5 -47q-109 0 -189 46t-132 126.5t-77.5 186t-25.5 224.5q0 169 44.5 299.5t139 204.5t244.5 74q129 0 224.5 -67t147.5 -195.5t52 -315.5zM344 559q0 -116 16.5 -195t51 -119t88.5 -40q55 0 88.5 39.5t49 119.5
t15.5 199q0 118 -15.5 196t-49 117t-88.5 39q-82 0 -119 -87t-37 -269zM795 1575q0 -102 -39.5 -176.5t-107 -115t-152.5 -40.5q-130 0 -210.5 84t-82.5 248h162q3 -49 18.5 -80.5t44 -47t70.5 -15.5q41 0 70.5 14.5t46.5 46t20 82.5h160z" />
    <glyph glyph-name="Ohungarumlaut" unicode="&#x150;" horiz-adv-x="1214" 
d="M1126 733q0 -174 -32 -313.5t-96 -237.5t-161.5 -150t-228.5 -52q-132 0 -230 52.5t-162 151.5t-96 238t-32 313q0 246 59 413t175 252t286 85q177 0 291.5 -91t170.5 -259.5t56 -401.5zM379 733q0 -168 26 -280.5t77 -169t126 -56.5q76 0 126.5 55t76 167t25.5 284
q0 257 -57 382.5t-171 125.5q-75 0 -126 -57t-77 -170t-26 -281zM1067 1911v-19q-14 -31 -44 -72t-68 -84.5t-77.5 -83.5t-72.5 -69h-137v27q34 63 64 121t53 105t34 75h248zM731 1911v-19q-15 -33 -44 -72.5t-66.5 -81t-79 -81.5t-82.5 -74h-127v27q35 65 65 123t52 104
t34 74h248z" />
    <glyph glyph-name="ohungarumlaut" unicode="&#x151;" horiz-adv-x="999" 
d="M926 563q0 -117 -23.5 -222t-74 -186t-132 -128t-198.5 -47q-109 0 -189 46t-132 126.5t-77.5 186t-25.5 224.5q0 169 44.5 299.5t139 204.5t244.5 74q129 0 224.5 -67t147.5 -195.5t52 -315.5zM344 559q0 -116 16.5 -195t51 -119t88.5 -40q55 0 88.5 39.5t49 119.5
t15.5 199q0 118 -15.5 196t-49 117t-88.5 39q-82 0 -119 -87t-37 -269zM958 1569v-19q-14 -31 -44 -72t-68 -84.5t-77.5 -83.5t-72.5 -69h-137v27q34 63 64 121t53 105t34 75h248zM622 1569v-19q-15 -33 -44 -72.5t-66.5 -81t-79 -81.5t-82.5 -74h-127v27q35 65 65 123
t52 104t34 74h248z" />
    <glyph glyph-name="OE" unicode="&#x152;" horiz-adv-x="1452" 
d="M606 1481q42 0 76.5 -5.5t62.5 -13.5h621v-239h-377v-344h350v-240h-350v-395h377v-244h-621q-27 -7 -61 -11.5t-76 -4.5q-180 0 -295 95t-170 264t-55 392q0 226 56 393.5t171 260t291 92.5zM625 1237q-66 -1 -112.5 -34.5t-75.5 -98t-42.5 -158t-13.5 -213.5
q0 -160 24.5 -272t78.5 -170.5t143 -59.5q28 0 50.5 3.5t39.5 7.5v975q-17 9 -40 14.5t-52 5.5z" />
    <glyph glyph-name="oe" unicode="&#x153;" horiz-adv-x="1511" 
d="M1059 1139q127 0 212.5 -62t129 -175.5t43.5 -268.5v-150h-533q0 -147 52 -217.5t159 -70.5q73 0 135.5 19.5t135.5 64.5v-222q-67 -40 -140.5 -58.5t-160.5 -18.5q-105 0 -180 38.5t-128 114.5q-47 -76 -118 -114.5t-168 -38.5q-139 0 -233.5 74t-142.5 205.5t-48 303.5
q0 174 46.5 304t141.5 202t240 72q92 0 161.5 -37t118.5 -113q32 50 72 82.5t91 49t114 16.5zM500 915q-82 0 -119 -87t-37 -269q0 -116 16.5 -195t51.5 -119t88 -40q55 0 88.5 39.5t49 119t15.5 199.5q0 118 -16 196t-49.5 117t-87.5 39zM1057 928q-64 0 -103.5 -59
t-42.5 -193h285q0 80 -16 136.5t-47 86t-76 29.5z" />
    <glyph glyph-name="Racute" unicode="&#x154;" horiz-adv-x="1049" 
d="M471 1462q162 0 269 -47t159.5 -141t52.5 -236q0 -90 -22 -163.5t-68.5 -131t-118.5 -100.5l301 -643h-309l-239 573h-84v-573h-281v1462h340zM469 1225h-57v-430h63q94 0 142.5 57t48.5 172q0 103 -48.5 152t-148.5 49zM866 1911v-19q-21 -29 -54 -68t-72.5 -82
t-80 -84.5t-76.5 -74.5h-190v27q36 54 66 105.5t55.5 100.5t46.5 95h305z" />
    <glyph glyph-name="racute" unicode="&#x155;" horiz-adv-x="711" 
d="M602 1141q22 0 43 -3.5t49 -11.5l-24 -284q-20 8 -43.5 11t-51.5 3q-46 0 -82 -20t-60.5 -57.5t-37 -90t-12.5 -117.5v-571h-266v1120h205l38 -184h13q22 53 55 100t77 76t97 29zM727 1569v-19q-21 -29 -54 -68t-72.5 -82t-80 -84.5t-76.5 -74.5h-190v27q36 54 66 105.5
t55.5 100.5t46.5 95h305z" />
    <glyph glyph-name="uni0156" unicode="&#x156;" horiz-adv-x="1049" 
d="M471 1462q162 0 269 -47t159.5 -141t52.5 -236q0 -90 -22 -163.5t-68.5 -131t-118.5 -100.5l301 -643h-309l-239 573h-84v-573h-281v1462h340zM469 1225h-57v-430h63q94 0 142.5 57t48.5 172q0 103 -48.5 152t-148.5 49zM692 -125v-22q-15 -52 -36 -106t-46 -105t-53 -95
h-172v27q10 35 20 90.5t17.5 112.5t9.5 98h260z" />
    <glyph glyph-name="uni0157" unicode="&#x157;" horiz-adv-x="711" 
d="M602 1141q22 0 43 -3.5t49 -11.5l-24 -284q-20 8 -43.5 11t-51.5 3q-46 0 -82 -20t-60.5 -57.5t-37 -90t-12.5 -117.5v-571h-266v1120h205l38 -184h13q22 53 55 100t77 76t97 29zM407 -125v-22q-15 -52 -36 -106t-46 -105t-53 -95h-172v27q10 35 20 90.5t17.5 112.5
t9.5 98h260z" />
    <glyph glyph-name="Rcaron" unicode="&#x158;" horiz-adv-x="1049" 
d="M471 1462q162 0 269 -47t159.5 -141t52.5 -236q0 -90 -22 -163.5t-68.5 -131t-118.5 -100.5l301 -643h-309l-239 573h-84v-573h-281v1462h340zM469 1225h-57v-430h63q94 0 142.5 57t48.5 172q0 103 -48.5 152t-148.5 49zM415 1583q-19 40 -53.5 95.5t-72.5 111t-68 94.5
v27h162q34 -31 73 -73.5t80 -92.5q47 56 82.5 93.5t73.5 72.5h160v-27q-29 -39 -66 -93t-71 -109.5t-56 -98.5h-244z" />
    <glyph glyph-name="rcaron" unicode="&#x159;" horiz-adv-x="711" 
d="M602 1141q22 0 43 -3.5t49 -11.5l-24 -284q-20 8 -43.5 11t-51.5 3q-46 0 -82 -20t-60.5 -57.5t-37 -90t-12.5 -117.5v-571h-266v1120h205l38 -184h13q22 53 55 100t77 76t97 29zM276 1241q-19 40 -53.5 95.5t-72.5 111t-68 94.5v27h162q34 -31 73 -73.5t80 -92.5
q47 56 82.5 93.5t73.5 72.5h160v-27q-29 -39 -66 -93t-71 -109.5t-56 -98.5h-244z" />
    <glyph glyph-name="Sacute" unicode="&#x15a;" horiz-adv-x="897" 
d="M836 428q0 -132 -53 -233t-149.5 -158t-227.5 -57q-61 0 -118 7.5t-112 25t-110 46.5v287q80 -52 166 -79t159 -27q54 0 89.5 21t53 57t17.5 81q0 48 -15 84.5t-57.5 73t-124.5 84.5q-64 38 -115.5 78t-88 88.5t-55.5 112.5t-19 151q-1 124 48.5 217t143 144.5
t224.5 50.5q89 0 174.5 -24t164.5 -68l-77 -248q-71 43 -134 63.5t-118 20.5q-48 0 -80.5 -18.5t-49 -50.5t-16.5 -73q0 -52 16 -88t60.5 -70.5t128.5 -82.5q91 -53 152 -112.5t92 -133t31 -170.5zM805 1911v-19q-21 -29 -54 -68t-72.5 -82t-80 -84.5t-76.5 -74.5h-190v27
q36 54 66 105.5t55.5 100.5t46.5 95h305z" />
    <glyph glyph-name="sacute" unicode="&#x15b;" horiz-adv-x="766" 
d="M711 328q0 -114 -42.5 -191.5t-123 -117t-193.5 -39.5q-81 0 -154.5 15.5t-138.5 47.5v258q54 -37 125 -63.5t144 -26.5q56 0 86 26t30 76q0 28 -12 52.5t-48 52t-108 63.5q-69 38 -118 87t-75 112t-26 143q0 148 92 233t252 85q82 0 154.5 -22.5t142.5 -65.5l-73 -205
q-48 32 -101 54t-108 22q-49 0 -75 -23.5t-26 -64.5q0 -29 12 -50t47.5 -46.5t104.5 -67.5q69 -40 121 -87t81.5 -109t29.5 -148zM727 1569v-19q-21 -29 -54 -68t-72.5 -82t-80 -84.5t-76.5 -74.5h-190v27q36 54 66 105.5t55.5 100.5t46.5 95h305z" />
    <glyph glyph-name="Scircumflex" unicode="&#x15c;" horiz-adv-x="897" 
d="M836 428q0 -132 -53 -233t-149.5 -158t-227.5 -57q-61 0 -118 7.5t-112 25t-110 46.5v287q80 -52 166 -79t159 -27q54 0 89.5 21t53 57t17.5 81q0 48 -15 84.5t-57.5 73t-124.5 84.5q-64 38 -115.5 78t-88 88.5t-55.5 112.5t-19 151q-1 124 48.5 217t143 144.5
t224.5 50.5q89 0 174.5 -24t164.5 -68l-77 -248q-71 43 -134 63.5t-118 20.5q-48 0 -80.5 -18.5t-49 -50.5t-16.5 -73q0 -52 16 -88t60.5 -70.5t128.5 -82.5q91 -53 152 -112.5t92 -133t31 -170.5zM598 1911q23 -45 53.5 -95.5t66 -103t73.5 -102.5v-27h-160
q-35 31 -73.5 72.5t-82.5 93.5q-44 -52 -83 -96t-70 -70h-162v27q32 40 69.5 95.5t71.5 111t53 94.5h244z" />
    <glyph glyph-name="scircumflex" unicode="&#x15d;" horiz-adv-x="766" 
d="M711 328q0 -114 -42.5 -191.5t-123 -117t-193.5 -39.5q-81 0 -154.5 15.5t-138.5 47.5v258q54 -37 125 -63.5t144 -26.5q56 0 86 26t30 76q0 28 -12 52.5t-48 52t-108 63.5q-69 38 -118 87t-75 112t-26 143q0 148 92 233t252 85q82 0 154.5 -22.5t142.5 -65.5l-73 -205
q-48 32 -101 54t-108 22q-49 0 -75 -23.5t-26 -64.5q0 -29 12 -50t47.5 -46.5t104.5 -67.5q69 -40 121 -87t81.5 -109t29.5 -148zM520 1569q23 -45 53.5 -95.5t66 -103t73.5 -102.5v-27h-160q-35 31 -73.5 72.5t-82.5 93.5q-44 -52 -83 -96t-70 -70h-162v27q32 40 69.5 95.5
t71.5 111t53 94.5h244z" />
    <glyph glyph-name="Scedilla" unicode="&#x15e;" horiz-adv-x="897" 
d="M836 428q0 -132 -53 -233t-149.5 -158t-227.5 -57q-61 0 -118 7.5t-112 25t-110 46.5v287q80 -52 166 -79t159 -27q54 0 89.5 21t53 57t17.5 81q0 48 -15 84.5t-57.5 73t-124.5 84.5q-64 38 -115.5 78t-88 88.5t-55.5 112.5t-19 151q-1 124 48.5 217t143 144.5
t224.5 50.5q89 0 174.5 -24t164.5 -68l-77 -248q-71 43 -134 63.5t-118 20.5q-48 0 -80.5 -18.5t-49 -50.5t-16.5 -73q0 -52 16 -88t60.5 -70.5t128.5 -82.5q91 -53 152 -112.5t92 -133t31 -170.5zM623 -266q0 -106 -65.5 -166t-188.5 -60q-45 0 -83 5t-69 12v156
q28 -8 54 -11.5t49 -3.5q47 0 71.5 19.5t24.5 54.5q0 41 -38 64.5t-106 27.5l70 168h135l-35 -82q58 -10 98 -34.5t61.5 -62.5t21.5 -87z" />
    <glyph glyph-name="scedilla" unicode="&#x15f;" horiz-adv-x="766" 
d="M711 328q0 -114 -42.5 -191.5t-123 -117t-193.5 -39.5q-81 0 -154.5 15.5t-138.5 47.5v258q54 -37 125 -63.5t144 -26.5q56 0 86 26t30 76q0 28 -12 52.5t-48 52t-108 63.5q-69 38 -118 87t-75 112t-26 143q0 148 92 233t252 85q82 0 154.5 -22.5t142.5 -65.5l-73 -205
q-48 32 -101 54t-108 22q-49 0 -75 -23.5t-26 -64.5q0 -29 12 -50t47.5 -46.5t104.5 -67.5q69 -40 121 -87t81.5 -109t29.5 -148zM558 -266q0 -106 -65.5 -166t-188.5 -60q-45 0 -83 5t-69 12v156q28 -8 54 -11.5t49 -3.5q47 0 71.5 19.5t24.5 54.5q0 41 -38 64.5t-106 27.5
l70 168h135l-35 -82q58 -10 98 -34.5t61.5 -62.5t21.5 -87z" />
    <glyph glyph-name="Scaron" unicode="&#x160;" horiz-adv-x="897" 
d="M836 428q0 -132 -53 -233t-149.5 -158t-227.5 -57q-61 0 -118 7.5t-112 25t-110 46.5v287q80 -52 166 -79t159 -27q54 0 89.5 21t53 57t17.5 81q0 48 -15 84.5t-57.5 73t-124.5 84.5q-64 38 -115.5 78t-88 88.5t-55.5 112.5t-19 151q-1 124 48.5 217t143 144.5
t224.5 50.5q89 0 174.5 -24t164.5 -68l-77 -248q-71 43 -134 63.5t-118 20.5q-48 0 -80.5 -18.5t-49 -50.5t-16.5 -73q0 -52 16 -88t60.5 -70.5t128.5 -82.5q91 -53 152 -112.5t92 -133t31 -170.5zM354 1583q-19 40 -53.5 95.5t-72.5 111t-68 94.5v27h162q34 -31 73 -73.5
t80 -92.5q47 56 82.5 93.5t73.5 72.5h160v-27q-29 -39 -66 -93t-71 -109.5t-56 -98.5h-244z" />
    <glyph glyph-name="scaron" unicode="&#x161;" horiz-adv-x="766" 
d="M711 328q0 -114 -42.5 -191.5t-123 -117t-193.5 -39.5q-81 0 -154.5 15.5t-138.5 47.5v258q54 -37 125 -63.5t144 -26.5q56 0 86 26t30 76q0 28 -12 52.5t-48 52t-108 63.5q-69 38 -118 87t-75 112t-26 143q0 148 92 233t252 85q82 0 154.5 -22.5t142.5 -65.5l-73 -205
q-48 32 -101 54t-108 22q-49 0 -75 -23.5t-26 -64.5q0 -29 12 -50t47.5 -46.5t104.5 -67.5q69 -40 121 -87t81.5 -109t29.5 -148zM276 1241q-19 40 -53.5 95.5t-72.5 111t-68 94.5v27h162q34 -31 73 -73.5t80 -92.5q47 56 82.5 93.5t73.5 72.5h160v-27q-29 -39 -66 -93
t-71 -109.5t-56 -98.5h-244z" />
    <glyph glyph-name="uni0162" unicode="&#x162;" horiz-adv-x="879" 
d="M578 0h-277v1219h-272v243h819v-243h-270v-1219zM639 -266q0 -106 -65.5 -166t-188.5 -60q-45 0 -83 5t-69 12v156q28 -8 54 -11.5t49 -3.5q47 0 71.5 19.5t24.5 54.5q0 41 -38 64.5t-106 27.5l70 168h135l-35 -82q58 -10 98 -34.5t61.5 -62.5t21.5 -87z" />
    <glyph glyph-name="uni0163" unicode="&#x163;" horiz-adv-x="649" 
d="M489 213q28 0 59.5 7.5t65.5 23.5v-213q-44 -25 -96.5 -38t-111.5 -13q-96 0 -156.5 38.5t-88.5 117t-28 198.5v565h-110v143l131 70l63 244h182v-236h201v-221h-201v-555q0 -66 20.5 -98.5t69.5 -32.5zM586 -266q0 -106 -65.5 -166t-188.5 -60q-45 0 -83 5t-69 12v156
q28 -8 54 -11.5t49 -3.5q47 0 71.5 19.5t24.5 54.5q0 41 -38 64.5t-106 27.5l70 168h135l-35 -82q58 -10 98 -34.5t61.5 -62.5t21.5 -87z" />
    <glyph glyph-name="Tcaron" unicode="&#x164;" horiz-adv-x="879" 
d="M578 0h-277v1219h-272v243h819v-243h-270v-1219zM319 1583q-19 40 -53.5 95.5t-72.5 111t-68 94.5v27h162q34 -31 73 -73.5t80 -92.5q47 56 82.5 93.5t73.5 72.5h160v-27q-29 -39 -66 -93t-71 -109.5t-56 -98.5h-244z" />
    <glyph glyph-name="tcaron" unicode="&#x165;" horiz-adv-x="649" 
d="M489 213q28 0 59.5 7.5t65.5 23.5v-213q-44 -25 -96.5 -38t-111.5 -13q-96 0 -156.5 38.5t-88.5 117t-28 198.5v565h-110v143l131 70l63 244h182v-236h201v-221h-201v-555q0 -66 20.5 -98.5t69.5 -32.5zM921 1556v-22q-13 -50 -33.5 -104.5t-45 -106.5t-50.5 -94h-172v26
q5 23 11.5 61.5t12.5 83.5t11 86.5t6 69.5h260z" />
    <glyph glyph-name="Tbar" unicode="&#x166;" horiz-adv-x="879" 
d="M301 0v614h-182v211h182v392h-272v245h819v-245h-270v-392h182v-211h-182v-614h-277z" />
    <glyph glyph-name="tbar" unicode="&#x167;" horiz-adv-x="649" 
d="M31 494v190h555v-190h-555zM489 213q28 0 59.5 7.5t65.5 23.5v-213q-44 -25 -96.5 -38t-111.5 -13q-96 0 -156.5 38.5t-88.5 117t-28 198.5v565h-110v143l131 70l63 244h182v-236h201v-221h-201v-555q0 -66 20.5 -98.5t69.5 -32.5z" />
    <glyph glyph-name="Utilde" unicode="&#x168;" horiz-adv-x="1151" 
d="M1028 1462v-981q0 -168 -52 -279t-153 -166.5t-250 -55.5q-217 0 -333.5 122.5t-116.5 372.5v987h280v-977q0 -139 44 -198.5t128 -59.5q59 0 97.5 25.5t58 82.5t19.5 152v975h278zM240 1581q2 48 9.5 101t26.5 99.5t53.5 75.5t88.5 29q41 0 78 -15.5t72 -36.5t68 -36.5
t65 -15.5q28 0 42 28t21 78h146q-3 -148 -54 -226.5t-125 -78.5q-39 0 -78.5 16t-76.5 36.5t-69 36.5t-56 16q-22 0 -40.5 -25.5t-25.5 -81.5h-145z" />
    <glyph glyph-name="utilde" unicode="&#x169;" horiz-adv-x="1026" 
d="M911 1120v-1120h-209l-30 143h-15q-25 -54 -61 -90t-82.5 -54.5t-103.5 -18.5q-99 0 -165 49t-99 140.5t-33 219.5v731h266v-651q0 -126 25 -189t81 -63q67 0 101 39t46.5 114t12.5 181v569h266zM178 1239q2 48 9.5 101t26.5 99.5t53.5 75.5t88.5 29q41 0 78 -15.5
t72 -36.5t68 -36.5t65 -15.5q28 0 42 28t21 78h146q-3 -148 -54 -226.5t-125 -78.5q-39 0 -78.5 16t-76.5 36.5t-69 36.5t-56 16q-22 0 -40.5 -25.5t-25.5 -81.5h-145z" />
    <glyph glyph-name="Umacron" unicode="&#x16a;" horiz-adv-x="1151" 
d="M1028 1462v-981q0 -168 -52 -279t-153 -166.5t-250 -55.5q-217 0 -333.5 122.5t-116.5 372.5v987h280v-977q0 -139 44 -198.5t128 -59.5q59 0 97.5 25.5t58 82.5t19.5 152v975h278zM858 1802v-194h-565v194h565z" />
    <glyph glyph-name="umacron" unicode="&#x16b;" horiz-adv-x="1026" 
d="M911 1120v-1120h-209l-30 143h-15q-25 -54 -61 -90t-82.5 -54.5t-103.5 -18.5q-99 0 -165 49t-99 140.5t-33 219.5v731h266v-651q0 -126 25 -189t81 -63q67 0 101 39t46.5 114t12.5 181v569h266zM797 1460v-194h-565v194h565z" />
    <glyph glyph-name="Ubreve" unicode="&#x16c;" horiz-adv-x="1151" 
d="M1028 1462v-981q0 -168 -52 -279t-153 -166.5t-250 -55.5q-217 0 -333.5 122.5t-116.5 372.5v987h280v-977q0 -139 44 -198.5t128 -59.5q59 0 97.5 25.5t58 82.5t19.5 152v975h278zM871 1917q0 -102 -39.5 -176.5t-107 -115t-152.5 -40.5q-130 0 -210.5 84t-82.5 248h162
q3 -49 18.5 -80.5t44 -47t70.5 -15.5q41 0 70.5 14.5t46.5 46t20 82.5h160z" />
    <glyph glyph-name="ubreve" unicode="&#x16d;" horiz-adv-x="1026" 
d="M911 1120v-1120h-209l-30 143h-15q-25 -54 -61 -90t-82.5 -54.5t-103.5 -18.5q-99 0 -165 49t-99 140.5t-33 219.5v731h266v-651q0 -126 25 -189t81 -63q67 0 101 39t46.5 114t12.5 181v569h266zM809 1575q0 -102 -39.5 -176.5t-107 -115t-152.5 -40.5q-130 0 -210.5 84
t-82.5 248h162q3 -49 18.5 -80.5t44 -47t70.5 -15.5q41 0 70.5 14.5t46.5 46t20 82.5h160z" />
    <glyph glyph-name="Uring" unicode="&#x16e;" horiz-adv-x="1151" 
d="M1028 1462v-981q0 -168 -52 -279t-153 -166.5t-250 -55.5q-217 0 -333.5 122.5t-116.5 372.5v987h280v-977q0 -139 44 -198.5t128 -59.5q59 0 97.5 25.5t58 82.5t19.5 152v975h278zM573 1583q-107 0 -172 65.5t-65 168.5q0 104 65 169.5t172 65.5t173.5 -66t66.5 -167
q0 -102 -65 -169t-175 -67zM576 1726q40 0 67 25.5t27 67.5q0 40 -26.5 66t-67.5 26q-40 0 -67.5 -26t-27.5 -66q0 -42 24.5 -67.5t70.5 -25.5z" />
    <glyph glyph-name="uring" unicode="&#x16f;" horiz-adv-x="1026" 
d="M911 1120v-1120h-209l-30 143h-15q-25 -54 -61 -90t-82.5 -54.5t-103.5 -18.5q-99 0 -165 49t-99 140.5t-33 219.5v731h266v-651q0 -126 25 -189t81 -63q67 0 101 39t46.5 114t12.5 181v569h266zM512 1241q-107 0 -172 65.5t-65 168.5q0 104 65 169.5t172 65.5t173.5 -66
t66.5 -167q0 -102 -65 -169t-175 -67zM515 1384q40 0 67 25.5t27 67.5q0 40 -26.5 66t-67.5 26q-40 0 -67.5 -26t-27.5 -66q0 -42 24.5 -67.5t70.5 -25.5z" />
    <glyph glyph-name="Uhungarumlaut" unicode="&#x170;" horiz-adv-x="1151" 
d="M1028 1462v-981q0 -168 -52 -279t-153 -166.5t-250 -55.5q-217 0 -333.5 122.5t-116.5 372.5v987h280v-977q0 -139 44 -198.5t128 -59.5q59 0 97.5 25.5t58 82.5t19.5 152v975h278zM1034 1911v-19q-14 -31 -44 -72t-68 -84.5t-77.5 -83.5t-72.5 -69h-137v27q34 63 64 121
t53 105t34 75h248zM698 1911v-19q-15 -33 -44 -72.5t-66.5 -81t-79 -81.5t-82.5 -74h-127v27q35 65 65 123t52 104t34 74h248z" />
    <glyph glyph-name="uhungarumlaut" unicode="&#x171;" horiz-adv-x="1026" 
d="M911 1120v-1120h-209l-30 143h-15q-25 -54 -61 -90t-82.5 -54.5t-103.5 -18.5q-99 0 -165 49t-99 140.5t-33 219.5v731h266v-651q0 -126 25 -189t81 -63q67 0 101 39t46.5 114t12.5 181v569h266zM973 1569v-19q-14 -31 -44 -72t-68 -84.5t-77.5 -83.5t-72.5 -69h-137v27
q34 63 64 121t53 105t34 75h248zM637 1569v-19q-15 -33 -44 -72.5t-66.5 -81t-79 -81.5t-82.5 -74h-127v27q35 65 65 123t52 104t34 74h248z" />
    <glyph glyph-name="Uogonek" unicode="&#x172;" horiz-adv-x="1151" 
d="M698 -215q0 -40 22 -60t56 -20q20 0 47.5 6t40.5 13v-181q-31 -10 -71.5 -16t-75.5 -6q-117 0 -171 58t-54 159q0 48 17.5 92.5t52 86.5t85.5 83l248 90q-75 -74 -118 -129t-61 -97t-18 -79zM1028 1462v-981q0 -168 -52 -279t-153 -166.5t-250 -55.5q-217 0 -333.5 122.5
t-116.5 372.5v987h280v-977q0 -139 44 -198.5t128 -59.5q59 0 97.5 25.5t58 82.5t19.5 152v975h278z" />
    <glyph glyph-name="uogonek" unicode="&#x173;" horiz-adv-x="1026" 
d="M911 1120v-1120h-209l-30 143h-15q-25 -54 -61 -90t-82.5 -54.5t-103.5 -18.5q-99 0 -165 49t-99 140.5t-33 219.5v731h266v-651q0 -126 25 -189t81 -63q67 0 101 39t46.5 114t12.5 181v569h266zM760 -209q0 -40 22 -65t64 -25q26 0 43 5.5t31 12.5v-172q-22 -10 -55 -18
t-77 -8q-118 0 -176.5 56.5t-58.5 156.5q0 48 18 99t57 101.5t101 96.5l141 -31q-66 -69 -88 -114t-22 -95z" />
    <glyph glyph-name="Wcircumflex" unicode="&#x174;" horiz-adv-x="1587" 
d="M1583 1462l-287 -1462h-321l-135 696q-6 36 -12.5 77t-13 86t-11.5 93.5t-10 100.5q-4 -39 -9 -83.5t-11 -91t-13 -92.5t-15 -88l-135 -698h-319l-289 1462h274l134 -739q8 -44 15.5 -94.5t15 -103.5t14 -104t10.5 -95q6 51 13.5 105t16 106t16.5 98.5t15 83.5l150 743
h235l140 -741q8 -40 16.5 -87.5t16.5 -99.5t15 -104.5t13 -103.5q5 60 14 128t19.5 137.5t21.5 131.5l136 739h280zM915 1911q23 -45 53.5 -95.5t66 -103t73.5 -102.5v-27h-160q-35 31 -73.5 72.5t-82.5 93.5q-44 -52 -83 -96t-70 -70h-162v27q32 40 69.5 95.5t71.5 111
t53 94.5h244z" />
    <glyph glyph-name="wcircumflex" unicode="&#x175;" horiz-adv-x="1403" 
d="M842 0l-101 563q-5 35 -10.5 72.5t-10.5 75.5t-9.5 75t-8.5 70h-6q-5 -37 -10 -75.5t-10 -76.5t-10 -73.5t-11 -65.5l-104 -565h-303l-236 1120h267l79 -430q11 -56 19.5 -119.5t16 -129t12.5 -128.5h6q4 39 8.5 80t10.5 86t14 93.5t18 101.5l86 446h305l84 -452
q9 -59 18 -120.5t17 -120.5t14 -114h8q3 50 8.5 104.5t13 112.5t17.5 115l92 475h263l-240 -1120h-307zM823 1569q23 -45 53.5 -95.5t66 -103t73.5 -102.5v-27h-160q-35 31 -73.5 72.5t-82.5 93.5q-44 -52 -83 -96t-70 -70h-162v27q32 40 69.5 95.5t71.5 111t53 94.5h244z
" />
    <glyph glyph-name="Ycircumflex" unicode="&#x176;" horiz-adv-x="971" 
d="M487 868l195 594h289l-346 -899v-563h-279v555l-346 907h291zM608 1911q23 -45 53.5 -95.5t66 -103t73.5 -102.5v-27h-160q-35 31 -73.5 72.5t-82.5 93.5q-44 -52 -83 -96t-70 -70h-162v27q32 40 69.5 95.5t71.5 111t53 94.5h244z" />
    <glyph glyph-name="ycircumflex" unicode="&#x177;" horiz-adv-x="909" 
d="M6 1120h279l131 -542q9 -37 17 -74.5t13.5 -72.5t8.5 -66h8q5 41 15 92.5t26 117.5l123 545h276l-334 -1229q-37 -138 -87.5 -222t-118.5 -122.5t-160 -38.5q-34 0 -65 5t-62 12v235q20 -6 40.5 -10t39.5 -4q41 0 66.5 16t45.5 59t43 124l17 67zM577 1569
q23 -45 53.5 -95.5t66 -103t73.5 -102.5v-27h-160q-35 31 -73.5 72.5t-82.5 93.5q-44 -52 -83 -96t-70 -70h-162v27q32 40 69.5 95.5t71.5 111t53 94.5h244z" />
    <glyph glyph-name="Ydieresis" unicode="&#x178;" horiz-adv-x="971" 
d="M487 868l195 594h289l-346 -899v-563h-279v555l-346 907h291zM174 1737q0 68 34 102.5t89 34.5q57 0 91 -36t34 -101q0 -63 -34 -99t-91 -36q-55 0 -89 34.5t-34 100.5zM545 1737q0 68 34 102.5t91 34.5t91 -36t34 -101q0 -63 -34 -99t-91 -36t-91 35.5t-34 99.5z" />
    <glyph glyph-name="Zacute" unicode="&#x179;" horiz-adv-x="877" 
d="M834 0h-787v201l473 1020h-465v241h766v-200l-473 -1018h486v-244zM770 1911v-19q-21 -29 -54 -68t-72.5 -82t-80 -84.5t-76.5 -74.5h-190v27q36 54 66 105.5t55.5 100.5t46.5 95h305z" />
    <glyph glyph-name="zacute" unicode="&#x17a;" horiz-adv-x="739" 
d="M700 0h-659v166l348 729h-328v225h623v-180l-334 -717h350v-223zM711 1569v-19q-21 -29 -54 -68t-72.5 -82t-80 -84.5t-76.5 -74.5h-190v27q36 54 66 105.5t55.5 100.5t46.5 95h305z" />
    <glyph glyph-name="Zdotaccent" unicode="&#x17b;" horiz-adv-x="877" 
d="M834 0h-787v201l473 1020h-465v241h766v-200l-473 -1018h486v-244zM475 1903q76 0 111 -39.5t35 -114.5q0 -73 -36.5 -111.5t-109.5 -38.5q-70 0 -107.5 38.5t-37.5 111.5q0 77 35 115.5t110 38.5z" />
    <glyph glyph-name="zdotaccent" unicode="&#x17c;" horiz-adv-x="739" 
d="M700 0h-659v166l348 729h-328v225h623v-180l-334 -717h350v-223zM415 1561q76 0 111 -39.5t35 -114.5q0 -73 -36.5 -111.5t-109.5 -38.5q-70 0 -107.5 38.5t-37.5 111.5q0 77 35 115.5t110 38.5z" />
    <glyph glyph-name="Zcaron" unicode="&#x17d;" horiz-adv-x="877" 
d="M834 0h-787v201l473 1020h-465v241h766v-200l-473 -1018h486v-244zM319 1583q-19 40 -53.5 95.5t-72.5 111t-68 94.5v27h162q34 -31 73 -73.5t80 -92.5q47 56 82.5 93.5t73.5 72.5h160v-27q-29 -39 -66 -93t-71 -109.5t-56 -98.5h-244z" />
    <glyph glyph-name="zcaron" unicode="&#x17e;" horiz-adv-x="739" 
d="M700 0h-659v166l348 729h-328v225h623v-180l-334 -717h350v-223zM260 1241q-19 40 -53.5 95.5t-72.5 111t-68 94.5v27h162q34 -31 73 -73.5t80 -92.5q47 56 82.5 93.5t73.5 72.5h160v-27q-29 -39 -66 -93t-71 -109.5t-56 -98.5h-244z" />
    <glyph glyph-name="longs" unicode="&#x17f;" horiz-adv-x="575" 
d="M485 1341q-44 0 -60.5 -38.5t-18.5 -128.5v-1174h-269v1155q0 142 29.5 233t94.5 135t169 44q57 0 105.5 -10.5t109.5 -34.5l-55 -201q-26 9 -53 14.5t-52 5.5z" />
    <glyph glyph-name="florin" unicode="&#x192;" horiz-adv-x="854" 
d="M569 1483q59 0 109.5 -11.5t116.5 -37.5l-58 -201q-29 12 -55.5 18t-54.5 6q-45 0 -63.5 -37.5t-18.5 -123.5v-84h186v-221h-186v-873q0 -141 -29.5 -232t-93.5 -134.5t-170 -43.5q-55 0 -95.5 8t-74.5 17v221q29 -10 58 -15t55 -5q46 0 65 37t19 116v904h-136v143
l136 78v67q0 143 31 232t95 130.5t164 41.5z" />
    <glyph glyph-name="Ohorn" unicode="&#x1a0;" horiz-adv-x="1249" 
d="M1126 733q0 -174 -32 -313.5t-96 -237.5t-161.5 -150t-228.5 -52q-132 0 -230 52.5t-162 151.5t-96 238t-32 313q0 246 59 413t175 252t286 85q126 0 221.5 -48t161.5 -143q28 37 43 77t21 85.5t6 99.5h248l12 -24q-17 -184 -76 -282t-166 -148q23 -76 35 -167.5
t12 -201.5zM379 733q0 -168 26 -280.5t77 -169t126 -56.5q76 0 126.5 55t76 167t25.5 284q0 257 -57 382.5t-171 125.5q-75 0 -126 -57t-77 -170t-26 -281z" />
    <glyph glyph-name="ohorn" unicode="&#x1a1;" horiz-adv-x="1102" 
d="M926 563q0 -183 -50 -313.5t-145.5 -200t-232.5 -69.5q-131 0 -226 70.5t-146.5 201t-51.5 311.5q0 277 111.5 427.5t316.5 150.5q94 0 172 -38t133 -112q41 14 63.5 57.5t32 105.5t10.5 130h246l12 -22q-13 -143 -49 -233.5t-93.5 -140t-135.5 -71.5q17 -55 25 -118.5
t8 -135.5zM344 559q0 -116 16.5 -195t51.5 -119t88 -40q55 0 88.5 39.5t49 119.5t15.5 199q0 118 -15.5 196t-49 117t-88.5 39q-82 0 -119 -87t-37 -269z" />
    <glyph glyph-name="Uhorn" unicode="&#x1af;" horiz-adv-x="1352" 
d="M1028 1462v-205q57 5 86.5 48.5t40 110.5t10.5 140h246l12 -24q-11 -124 -41 -210t-78.5 -140t-117.5 -79.5t-158 -27.5v-536q0 -184 -52 -308.5t-153 -187.5t-250 -63q-217 0 -333.5 139t-116.5 413v930h280v-921q0 -164 44 -239t128 -75q59 0 97.5 32.5t58 102
t19.5 181.5v919h278z" />
    <glyph glyph-name="uhorn" unicode="&#x1b0;" horiz-adv-x="1225" 
d="M1284 1282l10 -22q-10 -125 -39.5 -211t-77.5 -138.5t-114.5 -78.5t-151.5 -31v-801h-209l-30 143h-15q-25 -54 -61 -90t-82.5 -54.5t-103.5 -18.5q-99 0 -165 49t-99 140.5t-33 219.5v731h266v-651q0 -126 25 -189t81 -63q86 0 123 80t37 283v540h266v-135
q50 10 77.5 52t38.5 106.5t11 138.5h246z" />
    <glyph glyph-name="uni01EA" unicode="&#x1ea;" horiz-adv-x="1214" 
d="M1126 733q0 -174 -32 -313.5t-96 -237.5t-161.5 -150t-228.5 -52q-132 0 -230 52.5t-162 151.5t-96 238t-32 313q0 246 59 413t175 252t286 85q177 0 291.5 -91t170.5 -259.5t56 -401.5zM379 733q0 -168 26 -280.5t77 -169t126 -56.5q76 0 126.5 55t76 167t25.5 284
q0 257 -57 382.5t-171 125.5q-75 0 -126 -57t-77 -170t-26 -281zM627 -209q0 -40 22 -65t64 -25q26 0 43 5.5t31 12.5v-172q-22 -10 -55 -18t-77 -8q-118 0 -176.5 56.5t-58.5 156.5q0 48 18 99t57 101.5t101 96.5l141 -31q-66 -69 -88 -114t-22 -95z" />
    <glyph glyph-name="uni01EB" unicode="&#x1eb;" horiz-adv-x="999" 
d="M926 563q0 -117 -23.5 -222t-74 -186t-132 -128t-198.5 -47q-109 0 -189 46t-132 126.5t-77.5 186t-25.5 224.5q0 169 44.5 299.5t139 204.5t244.5 74q129 0 224.5 -67t147.5 -195.5t52 -315.5zM344 559q0 -116 16.5 -195t51 -119t88.5 -40q55 0 88.5 39.5t49 119.5
t15.5 199q0 118 -15.5 196t-49 117t-88.5 39q-82 0 -119 -87t-37 -269zM520 -209q0 -40 22 -65t64 -25q26 0 43 5.5t31 12.5v-172q-22 -10 -55 -18t-77 -8q-118 0 -176.5 56.5t-58.5 156.5q0 48 18 99t57 101.5t101 96.5l141 -31q-66 -69 -88 -114t-22 -95z" />
    <glyph glyph-name="uni01EC" unicode="&#x1ec;" horiz-adv-x="1214" 
d="M1126 733q0 -174 -32 -313.5t-96 -237.5t-161.5 -150t-228.5 -52q-132 0 -230 52.5t-162 151.5t-96 238t-32 313q0 246 59 413t175 252t286 85q177 0 291.5 -91t170.5 -259.5t56 -401.5zM379 733q0 -168 26 -280.5t77 -169t126 -56.5q76 0 126.5 55t76 167t25.5 284
q0 257 -57 382.5t-171 125.5q-75 0 -126 -57t-77 -170t-26 -281zM891 1802v-194h-565v194h565zM627 -209q0 -40 22 -65t64 -25q26 0 43 5.5t31 12.5v-172q-22 -10 -55 -18t-77 -8q-118 0 -176.5 56.5t-58.5 156.5q0 48 18 99t57 101.5t101 96.5l141 -31q-66 -69 -88 -114
t-22 -95z" />
    <glyph glyph-name="uni01ED" unicode="&#x1ed;" horiz-adv-x="999" 
d="M926 563q0 -117 -23.5 -222t-74 -186t-132 -128t-198.5 -47q-109 0 -189 46t-132 126.5t-77.5 186t-25.5 224.5q0 169 44.5 299.5t139 204.5t244.5 74q129 0 224.5 -67t147.5 -195.5t52 -315.5zM344 559q0 -116 16.5 -195t51 -119t88.5 -40q55 0 88.5 39.5t49 119.5
t15.5 199q0 118 -15.5 196t-49 117t-88.5 39q-82 0 -119 -87t-37 -269zM782 1460v-194h-565v194h565zM520 -209q0 -40 22 -65t64 -25q26 0 43 5.5t31 12.5v-172q-22 -10 -55 -18t-77 -8q-118 0 -176.5 56.5t-58.5 156.5q0 48 18 99t57 101.5t101 96.5l141 -31
q-66 -69 -88 -114t-22 -95z" />
    <glyph glyph-name="uni01F0" unicode="&#x1f0;" horiz-adv-x="500" 
d="M86 -492q-32 0 -76 7t-67 16v229q21 -9 42.5 -13.5t41.5 -4.5q46 0 68 35.5t22 107.5v1235h266v-1241q0 -117 -34 -200t-100 -127t-163 -44zM131 1241q-19 40 -53.5 95.5t-72.5 111t-68 94.5v27h162q34 -31 73 -73.5t80 -92.5q47 56 82.5 93.5t73.5 72.5h160v-27
q-29 -39 -66 -93t-71 -109.5t-56 -98.5h-244z" />
    <glyph glyph-name="Aringacute" unicode="&#x1fa;" horiz-adv-x="1077" 
d="M0 0l346 1337q-22 22 -35.5 51.5t-13.5 67.5q0 103 65.5 169.5t174.5 66.5q104 0 171.5 -67t67.5 -167q0 -40 -14 -69.5t-37 -51.5l352 -1337h-301l-69 324h-334l-70 -324h-303zM416 567h243l-79 367q-9 45 -18 96.5t-15.5 97t-9.5 72.5q-3 -22 -7 -51.5t-8.5 -62.5
t-9.5 -66.5t-10 -63.5zM537 1364q40 0 67 26.5t27 67.5q0 40 -26.5 66t-67.5 26q-40 0 -67.5 -26t-27.5 -66q0 -41 24.5 -67.5t70.5 -26.5zM395 1755v19q57 67 84.5 101t40.5 53.5t25 41.5h321v-14q-18 -19 -51 -46t-71.5 -56.5t-74 -55.5t-59.5 -43h-215z" />
    <glyph glyph-name="aringacute" unicode="&#x1fb;" horiz-adv-x="950" 
d="M504 1141q163 0 248.5 -100.5t85.5 -299.5v-741h-195l-43 150h-6q-34 -57 -72.5 -95t-87.5 -56.5t-115 -18.5q-93 0 -150.5 50t-83.5 130t-26 170q0 175 97 265t276 97l139 6v45q0 92 -28.5 137.5t-93.5 45.5q-48 0 -105 -19t-125 -59l-74 199q76 46 167 70t192 24z
M571 520l-75 -4q-85 -4 -126.5 -47.5t-41.5 -126.5q0 -75 25.5 -112t74.5 -37q63 0 103 61t40 164v102zM485 1534q-40 0 -67 -25.5t-27 -66.5q0 -42 24 -68t70 -26q41 0 68 26t27 68q0 41 -26.5 66.5t-68.5 25.5zM483 1675q70 0 125.5 -29.5t88 -81.5t32.5 -120
q0 -101 -68 -168.5t-178 -67.5q-107 0 -172 65.5t-65 168.5t65 168t172 65zM827 1968v-12q-25 -32 -75.5 -78.5t-101.5 -88.5t-79 -63h-217v19q53 69 80.5 107.5t42.5 63.5t29 52h321z" />
    <glyph glyph-name="AEacute" unicode="&#x1fc;" horiz-adv-x="1417" 
d="M1331 0h-653v352h-281l-98 -352h-305l446 1462h891v-241h-377v-342h351v-240h-351v-395h377v-244zM463 596h215v625h-45zM1085 1911v-19q-21 -29 -54 -68t-72.5 -82t-80 -84.5t-76.5 -74.5h-190v27q36 54 66 105.5t55.5 100.5t46.5 95h305z" />
    <glyph glyph-name="aeacute" unicode="&#x1fd;" horiz-adv-x="1423" 
d="M971 1139q127 0 212.5 -62t129 -175.5t43.5 -268.5v-150h-533q2 -147 53.5 -217.5t157.5 -70.5q71 0 136 19.5t135 64.5v-222q-66 -40 -139 -58.5t-162 -18.5q-74 0 -141 21t-120.5 64.5t-87.5 108.5q-41 -67 -88.5 -109.5t-103 -63.5t-121.5 -21q-99 0 -161.5 50
t-92 130t-29.5 170q0 117 43.5 195.5t127 120t202.5 46.5l139 6v45q0 91 -30 137t-92 46q-48 0 -105 -19t-125 -59l-74 199q71 44 155 69t173 25q88 0 147.5 -29.5t96.5 -89.5q44 59 106.5 88t147.5 29zM571 520l-75 -4q-85 -4 -126.5 -46.5t-41.5 -127.5q0 -75 25.5 -112
t74.5 -37q42 0 74.5 27.5t50.5 78.5t18 119v102zM969 928q-63 0 -103 -59t-43 -193h285q0 80 -16 136.5t-47 86t-76 29.5zM1055 1569v-19q-21 -29 -54 -68t-72.5 -82t-80 -84.5t-76.5 -74.5h-190v27q36 54 66 105.5t55.5 100.5t46.5 95h305z" />
    <glyph glyph-name="Oslashacute" unicode="&#x1fe;" horiz-adv-x="1214" 
d="M1126 733q0 -183 -33.5 -323.5t-99 -236t-162 -144.5t-223.5 -49q-72 0 -133.5 16.5t-114.5 50.5l-71 -151l-142 65l95 189q-85 113 -119.5 258t-34.5 327q0 246 59 413t175 252t286 85q74 0 138.5 -19.5t117.5 -56.5l68 137l139 -65l-88 -178q72 -94 107.5 -237.5
t35.5 -332.5zM844 733q0 74 -6 138t-17 116l-350 -706q26 -32 61 -48t76 -16q78 0 130.5 57.5t79 172t26.5 286.5zM373 733q0 -84 6.5 -153.5t19.5 -124.5l357 714q-29 41 -65 59.5t-81 18.5q-79 0 -132 -57.5t-79 -172t-26 -284.5zM938 1911v-19q-21 -29 -54 -68t-72.5 -82
t-80 -84.5t-76.5 -74.5h-190v27q36 54 66 105.5t55.5 100.5t46.5 95h305z" />
    <glyph glyph-name="oslashacute" unicode="&#x1ff;" horiz-adv-x="999" 
d="M926 563q0 -183 -50 -313.5t-145.5 -200t-232.5 -69.5q-51 0 -95.5 11t-85.5 34l-71 -150l-135 64l90 180q-67 91 -97 199.5t-30 244.5q0 277 111.5 427.5t316.5 150.5q52 0 97 -12.5t85 -38.5l64 124l133 -63l-76 -158q59 -75 90 -185t31 -245zM332 559q0 -52 3.5 -95
t10.5 -77l250 500q-19 21 -43 31t-53 10q-89 0 -128.5 -91.5t-39.5 -277.5zM668 563q0 48 -3 88t-8 72l-247 -496q17 -18 39.5 -27.5t48.5 -9.5q62 0 99 42t54 125t17 206zM834 1569v-19q-21 -29 -54 -68t-72.5 -82t-80 -84.5t-76.5 -74.5h-190v27q36 54 66 105.5
t55.5 100.5t46.5 95h305z" />
    <glyph glyph-name="uni0218" unicode="&#x218;" horiz-adv-x="897" 
d="M836 428q0 -132 -53 -233t-149.5 -158t-227.5 -57q-61 0 -118 7.5t-112 25t-110 46.5v287q80 -52 166 -79t159 -27q54 0 89.5 21t53 57t17.5 81q0 48 -15 84.5t-57.5 73t-124.5 84.5q-64 38 -115.5 78t-88 88.5t-55.5 112.5t-19 151q-1 124 48.5 217t143 144.5
t224.5 50.5q89 0 174.5 -24t164.5 -68l-77 -248q-71 43 -134 63.5t-118 20.5q-48 0 -80.5 -18.5t-49 -50.5t-16.5 -73q0 -52 16 -88t60.5 -70.5t128.5 -82.5q91 -53 152 -112.5t92 -133t31 -170.5zM567 -125v-22q-15 -52 -36 -106t-46 -105t-53 -95h-172v27q10 35 20 90.5
t17.5 112.5t9.5 98h260z" />
    <glyph glyph-name="uni0219" unicode="&#x219;" horiz-adv-x="766" 
d="M711 328q0 -114 -42.5 -191.5t-123 -117t-193.5 -39.5q-81 0 -154.5 15.5t-138.5 47.5v258q54 -37 125 -63.5t144 -26.5q56 0 86 26t30 76q0 28 -12 52.5t-48 52t-108 63.5q-69 38 -118 87t-75 112t-26 143q0 148 92 233t252 85q82 0 154.5 -22.5t142.5 -65.5l-73 -205
q-48 32 -101 54t-108 22q-49 0 -75 -23.5t-26 -64.5q0 -29 12 -50t47.5 -46.5t104.5 -67.5q69 -40 121 -87t81.5 -109t29.5 -148zM502 -125v-22q-15 -52 -36 -106t-46 -105t-53 -95h-172v27q10 35 20 90.5t17.5 112.5t9.5 98h260z" />
    <glyph glyph-name="uni021A" unicode="&#x21a;" horiz-adv-x="879" 
d="M578 0h-277v1219h-272v243h819v-243h-270v-1219zM585 -125v-22q-15 -52 -36 -106t-46 -105t-53 -95h-172v27q10 35 20 90.5t17.5 112.5t9.5 98h260z" />
    <glyph glyph-name="uni021B" unicode="&#x21b;" horiz-adv-x="649" 
d="M489 213q28 0 59.5 7.5t65.5 23.5v-213q-44 -25 -96.5 -38t-111.5 -13q-96 0 -156.5 38.5t-88.5 117t-28 198.5v565h-110v143l131 70l63 244h182v-236h201v-221h-201v-555q0 -66 20.5 -98.5t69.5 -32.5zM532 -125v-22q-15 -52 -36 -106t-46 -105t-53 -95h-172v27
q10 35 20 90.5t17.5 112.5t9.5 98h260z" />
    <glyph glyph-name="uni0237" unicode="&#x237;" horiz-adv-x="500" 
d="M86 -492q-32 0 -76 7t-67 16v229q21 -9 42.5 -13.5t41.5 -4.5q46 0 68 35.5t22 107.5v1235h266v-1241q0 -117 -34 -200t-100 -127t-163 -44z" />
    <glyph glyph-name="uni0259" unicode="&#x259;" horiz-adv-x="936" 
d="M426 1139q155 0 251.5 -69.5t141.5 -198.5t45 -308q0 -187 -46 -317.5t-136 -198t-223 -67.5q-126 0 -213 62t-132.5 175t-45.5 266v152h532q0 147 -52 217t-159 70q-70 0 -134 -19t-136 -63v221q68 40 143.5 59t163.5 19zM600 442h-285q0 -78 16 -135t47 -88t75 -31
q65 0 104.5 59.5t42.5 194.5z" />
    <glyph glyph-name="uni02BC" unicode="&#x2bc;" horiz-adv-x="492" 
d="M404 1462l12 -22q-16 -101 -37.5 -194t-47 -177t-56.5 -160h-217q13 57 25.5 130.5t24 151t19.5 148.5t12 123h265z" />
    <glyph glyph-name="circumflex" unicode="&#x2c6;" horiz-adv-x="795" 
d="M520 1569q23 -45 53.5 -95.5t66 -103t73.5 -102.5v-27h-160q-35 31 -73.5 72.5t-82.5 93.5q-44 -52 -83 -96t-70 -70h-162v27q32 40 69.5 95.5t71.5 111t53 94.5h244z" />
    <glyph glyph-name="caron" unicode="&#x2c7;" horiz-adv-x="795" 
d="M276 1241q-19 40 -53.5 95.5t-72.5 111t-68 94.5v27h162q34 -31 73 -73.5t80 -92.5q47 56 82.5 93.5t73.5 72.5h160v-27q-29 -39 -66 -93t-71 -109.5t-56 -98.5h-244z" />
    <glyph glyph-name="macron" unicode="&#x2c9;" horiz-adv-x="729" 
d="M647 1460v-194h-565v194h565z" />
    <glyph glyph-name="breve" unicode="&#x2d8;" horiz-adv-x="756" 
d="M674 1575q0 -102 -39.5 -176.5t-107 -115t-152.5 -40.5q-130 0 -210.5 84t-82.5 248h162q3 -49 18.5 -80.5t44 -47t70.5 -15.5q41 0 70.5 14.5t46.5 46t20 82.5h160z" />
    <glyph glyph-name="dotaccent" unicode="&#x2d9;" horiz-adv-x="455" 
d="M227 1561q76 0 111 -39.5t35 -114.5q0 -73 -36.5 -111.5t-109.5 -38.5q-70 0 -107.5 38.5t-37.5 111.5q0 77 35 115.5t110 38.5z" />
    <glyph glyph-name="ring" unicode="&#x2da;" horiz-adv-x="641" 
d="M319 1241q-107 0 -172 65.5t-65 168.5q0 104 65 169.5t172 65.5t173.5 -66t66.5 -167q0 -102 -65 -169t-175 -67zM322 1384q40 0 67 25.5t27 67.5q0 40 -26.5 66t-67.5 26q-40 0 -67.5 -26t-27.5 -66q0 -42 24.5 -67.5t70.5 -25.5z" />
    <glyph glyph-name="ogonek" unicode="&#x2db;" horiz-adv-x="530" 
d="M289 -209q0 -40 22 -65t64 -25q26 0 43 5.5t31 12.5v-172q-22 -10 -55 -18t-77 -8q-118 0 -176.5 56.5t-58.5 156.5q0 48 18 99t57 101.5t101 96.5l141 -31q-66 -69 -88 -114t-22 -95z" />
    <glyph glyph-name="tilde" unicode="&#x2dc;" horiz-adv-x="834" 
d="M82 1239q2 48 9.5 101t26.5 99.5t53.5 75.5t88.5 29q41 0 78 -15.5t72 -36.5t68 -36.5t65 -15.5q28 0 42 28t21 78h146q-3 -148 -54 -226.5t-125 -78.5q-39 0 -78.5 16t-76.5 36.5t-69 36.5t-56 16q-22 0 -40.5 -25.5t-25.5 -81.5h-145z" />
    <glyph glyph-name="hungarumlaut" unicode="&#x2dd;" horiz-adv-x="899" 
d="M817 1569v-19q-14 -31 -44 -72t-68 -84.5t-77.5 -83.5t-72.5 -69h-137v27q34 63 64 121t53 105t34 75h248zM481 1569v-19q-15 -33 -44 -72.5t-66.5 -81t-79 -81.5t-82.5 -74h-127v27q35 65 65 123t52 104t34 74h248z" />
    <glyph glyph-name="uni02F3" unicode="&#x2f3;" horiz-adv-x="809" 
d="M403 -575q-109 0 -173 64.5t-64 168.5q0 103 64 169.5t173 66.5q108 0 174 -68t66 -166q0 -101 -65 -168t-175 -67zM403 -434q41 0 68 25.5t27 66.5t-26.5 66.5t-68.5 25.5q-40 0 -67 -25.5t-27 -66.5t24 -66.5t70 -25.5z" />
    <glyph glyph-name="gravecomb" unicode="&#x300;" 
d="M-522 1569q19 -43 50 -101.5t63.5 -113t54.5 -86.5v-27h-190q-27 24 -66.5 64t-82 86t-78.5 88.5t-56 70.5v19h305z" />
    <glyph glyph-name="acutecomb" unicode="&#x301;" 
d="M-109 1569v-19q-21 -29 -54 -68t-72.5 -82t-80 -84.5t-76.5 -74.5h-190v27q36 54 66 105.5t55.5 100.5t46.5 95h305z" />
    <glyph glyph-name="uni0302" unicode="&#x302;" 
d="M123 1569q23 -45 53.5 -95.5t66 -103t73.5 -102.5v-27h-160q-35 31 -73.5 72.5t-82.5 93.5q-44 -52 -83 -96t-70 -70h-162v27q32 40 69.5 95.5t71.5 111t53 94.5h244z" />
    <glyph glyph-name="tildecomb" unicode="&#x303;" 
d="M-887 1239q2 48 9.5 101t26.5 99.5t53.5 75.5t88.5 29q41 0 78 -15.5t72 -36.5t68 -36.5t65 -15.5q28 0 42 28t21 78h146q-3 -148 -54 -226.5t-125 -78.5q-39 0 -78.5 16t-76.5 36.5t-69 36.5t-56 16q-22 0 -40.5 -25.5t-25.5 -81.5h-145z" />
    <glyph glyph-name="uni0304" unicode="&#x304;" 
d="M282 1460v-194h-565v194h565z" />
    <glyph glyph-name="uni0306" unicode="&#x306;" 
d="M297 1575q0 -102 -39.5 -176.5t-107 -115t-152.5 -40.5q-130 0 -210.5 84t-82.5 248h162q3 -49 18.5 -80.5t44 -47t70.5 -15.5q41 0 70.5 14.5t46.5 46t20 82.5h160z" />
    <glyph glyph-name="uni0307" unicode="&#x307;" 
d="M22 1561q76 0 111 -39.5t35 -114.5q0 -73 -36.5 -111.5t-109.5 -38.5q-70 0 -107.5 38.5t-37.5 111.5q0 77 35 115.5t110 38.5z" />
    <glyph glyph-name="uni0308" unicode="&#x308;" 
d="M-310 1395q0 68 34 102.5t89 34.5q57 0 91 -36t34 -101q0 -63 -34 -99t-91 -36q-55 0 -89 34.5t-34 100.5zM61 1395q0 68 34 102.5t91 34.5t91 -36t34 -101q0 -63 -34 -99t-91 -36t-91 35.5t-34 99.5z" />
    <glyph glyph-name="hookabovecomb" unicode="&#x309;" 
d="M-334 1489q0 -77 -37 -128t-114 -73l-13 -67h-131l-16 141q54 8 78 31.5t24 64.5q0 35 -19 54.5t-63 19.5q-21 0 -44 -4.5t-48 -14.5v162q32 14 69.5 20.5t80.5 6.5q113 0 173 -56t60 -157z" />
    <glyph glyph-name="uni030A" unicode="&#x30a;" 
d="M-3 1241q-107 0 -172 65.5t-65 168.5q0 104 65 169.5t172 65.5t173.5 -66t66.5 -167q0 -102 -65 -169t-175 -67zM0 1384q40 0 67 25.5t27 67.5q0 40 -26.5 66t-67.5 26q-40 0 -67.5 -26t-27.5 -66q0 -42 24.5 -67.5t70.5 -25.5z" />
    <glyph glyph-name="uni030B" unicode="&#x30b;" 
d="M483 1569v-19q-14 -31 -44 -72t-68 -84.5t-77.5 -83.5t-72.5 -69h-137v27q34 63 64 121t53 105t34 75h248zM147 1569v-19q-15 -33 -44 -72.5t-66.5 -81t-79 -81.5t-82.5 -74h-127v27q35 65 65 123t52 104t34 74h248z" />
    <glyph glyph-name="uni030C" unicode="&#x30c;" 
d="M-121 1241q-19 40 -53.5 95.5t-72.5 111t-68 94.5v27h162q34 -31 73 -73.5t80 -92.5q47 56 82.5 93.5t73.5 72.5h160v-27q-29 -39 -66 -93t-71 -109.5t-56 -98.5h-244z" />
    <glyph glyph-name="uni030F" unicode="&#x30f;" 
d="M-449 1569q13 -30 35.5 -77t52.5 -104.5t64 -119.5v-27h-127q-40 32 -82 72.5t-80 83.5t-67 83t-43 70v19h247zM-784 1569q16 -37 38.5 -83t50.5 -100.5t60 -117.5v-27h-135q-31 29 -71 69.5t-79 85t-69.5 85t-44.5 69.5v19h250z" />
    <glyph glyph-name="uni0312" unicode="&#x312;" 
d="M-137 909l-12 23q17 103 38.5 195.5t48 176.5t56.5 158h217q-19 -85 -35.5 -185t-28.5 -196.5t-18 -171.5h-266z" />
    <glyph glyph-name="dotbelowcomb" unicode="&#x323;" 
d="M-575 -436q-73 0 -109.5 38t-36.5 113q0 76 35 114t111 38q75 0 110 -38t35 -114q0 -75 -36.5 -113t-108.5 -38z" />
    <glyph glyph-name="uni0326" unicode="&#x326;" 
d="M145 -125v-22q-15 -52 -36 -106t-46 -105t-53 -95h-172v27q10 35 20 90.5t17.5 112.5t9.5 98h260z" />
    <glyph glyph-name="uni0327" unicode="&#x327;" 
d="M203 -266q0 -106 -65.5 -166t-188.5 -60q-45 0 -83 5t-69 12v156q28 -8 54 -11.5t49 -3.5q47 0 71.5 19.5t24.5 54.5q0 41 -38 64.5t-106 27.5l70 168h135l-35 -82q58 -10 98 -34.5t61.5 -62.5t21.5 -87z" />
    <glyph glyph-name="uni0328" unicode="&#x328;" 
d="M2 -209q0 -40 22 -65t64 -25q26 0 43 5.5t31 12.5v-172q-22 -10 -55 -18t-77 -8q-118 0 -176.5 56.5t-58.5 156.5q0 48 18 99t57 101.5t101 96.5l141 -31q-66 -69 -88 -114t-22 -95z" />
    <glyph glyph-name="tonos" unicode="&#x384;" horiz-adv-x="940" 
d="M360 1241v29q6 21 16.5 63.5t21.5 91.5t19.5 91t10.5 63h244v-25q-20 -49 -44 -102.5t-50.5 -107t-55.5 -103.5h-162z" />
    <glyph glyph-name="dieresistonos" unicode="&#x385;" horiz-adv-x="950" 
d="M643 1677v-20q-12 -37 -31 -81.5t-43 -93.5t-53 -100h-127v27q11 54 19 103t13 91.5t5 73.5h217zM233 1516q54 0 86.5 -36.5t32.5 -101.5q0 -63 -32.5 -100t-86.5 -37q-52 0 -84 36.5t-32 100.5q0 66 32 102t84 36zM715 1520q53 0 86 -37t33 -105q0 -60 -33 -96.5
t-86 -36.5q-52 0 -84.5 36t-32.5 99q0 68 32.5 104t84.5 36z" />
    <glyph glyph-name="Alphatonos" unicode="&#x386;" horiz-adv-x="1114" 
d="M815 0l-76 352h-325l-76 -352h-301l354 1462h363l360 -1462h-299zM696 596l-79 387q-8 48 -15.5 94t-14 88.5t-11.5 79.5q-3 -35 -9 -77t-14 -88t-18 -93l-78 -391h239zM-11 1210v29q6 21 16.5 63.5t21.5 91.5t19.5 91t10.5 63h244v-25q-20 -49 -44 -102.5t-50.5 -107
t-55.5 -103.5h-162z" />
    <glyph glyph-name="anoteleia" unicode="&#x387;" horiz-adv-x="522" 
d="M104 964q0 82 41 125t119 43q74 0 115 -42.5t41 -125.5q0 -81 -42 -124.5t-114 -43.5q-73 0 -116.5 43.5t-43.5 124.5z" />
    <glyph glyph-name="Epsilontonos" unicode="&#x388;" horiz-adv-x="1098" 
d="M1011 0h-657v1462h657v-239h-376v-344h350v-240h-350v-395h376v-244zM-15 1186v29q6 21 16.5 63.5t21.5 91.5t19.5 91t10.5 63h244v-25q-20 -49 -44 -102.5t-50.5 -107t-55.5 -103.5h-162z" />
    <glyph glyph-name="Etatonos" unicode="&#x389;" horiz-adv-x="1415" 
d="M1284 0h-281v639h-362v-639h-281v1462h281v-579h362v579h281v-1462zM-17 1186v29q6 21 16.5 63.5t21.5 91.5t19.5 91t10.5 63h244v-25q-20 -49 -44 -102.5t-50.5 -107t-55.5 -103.5h-162z" />
    <glyph glyph-name="Iotatonos" unicode="&#x38a;" horiz-adv-x="782" 
d="M371 0v1462h281v-1462h-281zM-15 1186v29q6 21 16.5 63.5t21.5 91.5t19.5 91t10.5 63h244v-25q-20 -49 -44 -102.5t-50.5 -107t-55.5 -103.5h-162z" />
    <glyph glyph-name="Omicrontonos" unicode="&#x38c;" horiz-adv-x="1323" 
d="M1235 733q0 -174 -32 -313.5t-96 -237.5t-161.5 -150t-228.5 -52q-132 0 -230 52.5t-162 151.5t-96 238t-32 313q0 246 59 413t175 252t286 85q177 0 291.5 -91t170.5 -259.5t56 -401.5zM488 733q0 -168 26 -280.5t77 -169t126 -56.5q76 0 126.5 55t76 167t25.5 284
q0 257 -57 382.5t-171 125.5q-75 0 -126 -57t-77 -170t-26 -281zM-15 1186v29q6 21 16.5 63.5t21.5 91.5t19.5 91t10.5 63h244v-25q-20 -49 -44 -102.5t-50.5 -107t-55.5 -103.5h-162z" />
    <glyph glyph-name="Upsilontonos" unicode="&#x38e;" horiz-adv-x="1294" 
d="M811 868l195 594h289l-346 -899v-563h-279v555l-346 907h291zM-15 1186v29q6 21 16.5 63.5t21.5 91.5t19.5 91t10.5 63h244v-25q-20 -49 -44 -102.5t-50.5 -107t-55.5 -103.5h-162z" />
    <glyph glyph-name="Omegatonos" unicode="&#x38f;" horiz-adv-x="1343" 
d="M735 1241q-80 0 -133.5 -47.5t-79.5 -142.5t-26 -240q0 -130 17.5 -233.5t55 -181.5t95.5 -134v-262h-496v244h277q-72 55 -124 142t-80 204t-28 260q0 208 61.5 349.5t178.5 213.5t282 72q158 0 274 -71.5t179 -213t63 -350.5q0 -144 -27.5 -260t-80 -202.5
t-127.5 -143.5h283v-244h-500v262q63 58 100.5 136.5t54.5 181.5t17 233q0 142 -26 237t-78.5 143t-131.5 48zM-15 1186v29q6 21 16.5 63.5t21.5 91.5t19.5 91t10.5 63h244v-25q-20 -49 -44 -102.5t-50.5 -107t-55.5 -103.5h-162z" />
    <glyph glyph-name="iotadieresistonos" unicode="&#x390;" horiz-adv-x="618" 
d="M381 1120v-794q0 -58 20 -85.5t60 -27.5q32 0 64 9.5t61 25.5v-217q-43 -26 -93.5 -38.5t-109.5 -12.5q-92 0 -151.5 34.5t-88 110t-28.5 197.5v798h266zM440 1677v-20q-12 -37 -31 -81.5t-43 -93.5t-53 -100h-127v27q11 54 19 103t13 91.5t5 73.5h217zM30 1516
q54 0 86.5 -36.5t32.5 -101.5q0 -63 -32.5 -100t-86.5 -37q-52 0 -84 36.5t-32 100.5q0 66 32 102t84 36zM512 1520q53 0 86 -37t33 -105q0 -60 -33 -96.5t-86 -36.5q-52 0 -84.5 36t-32.5 99q0 68 32.5 104t84.5 36z" />
    <glyph glyph-name="Alpha" unicode="&#x391;" horiz-adv-x="1077" 
d="M778 0l-76 352h-325l-76 -352h-301l354 1462h363l360 -1462h-299zM659 596l-79 387q-8 48 -15.5 94t-14 88.5t-11.5 79.5q-3 -35 -9 -77t-14 -88t-18 -93l-78 -391h239z" />
    <glyph glyph-name="Beta" unicode="&#x392;" horiz-adv-x="1079" 
d="M131 1462h385q226 0 338.5 -88.5t112.5 -271.5q0 -86 -23.5 -153.5t-67.5 -111.5t-106 -61v-10q78 -21 127.5 -66t72.5 -114t23 -162q0 -130 -51.5 -225t-148.5 -147t-232 -52h-430v1462zM412 870h104q85 0 126.5 49t41.5 144q0 83 -43 126.5t-129 43.5h-100v-363z
M412 647v-411h127q84 0 126 52t42 158q0 65 -21 109.5t-60.5 68t-97.5 23.5h-116z" />
    <glyph glyph-name="Gamma" unicode="&#x393;" horiz-adv-x="844" 
d="M819 1462v-243h-407v-1219h-281v1462h688z" />
    <glyph glyph-name="uni0394" unicode="&#x394;" horiz-adv-x="1071" 
d="M717 1462l332 -1296v-166h-1024v170l329 1292h363zM733 244l-166 770q-6 29 -12 63t-11.5 69t-8.5 66q-4 -34 -9.5 -69t-11.5 -68t-12 -63l-166 -768h397z" />
    <glyph glyph-name="Epsilon" unicode="&#x395;" horiz-adv-x="874" 
d="M788 0h-657v1462h657v-239h-376v-344h350v-240h-350v-395h376v-244z" />
    <glyph glyph-name="Zeta" unicode="&#x396;" horiz-adv-x="877" 
d="M834 0h-787v201l473 1020h-465v241h766v-200l-473 -1018h486v-244z" />
    <glyph glyph-name="Eta" unicode="&#x397;" horiz-adv-x="1186" 
d="M1055 0h-281v639h-362v-639h-281v1462h281v-579h362v579h281v-1462z" />
    <glyph glyph-name="Theta" unicode="&#x398;" horiz-adv-x="1214" 
d="M758 856v-225h-301v225h301zM1126 733q0 -174 -32 -313.5t-96 -237.5t-161.5 -150t-228.5 -52q-132 0 -230 52.5t-162 151.5t-96 238t-32 313q0 246 59 413t175 252t286 85q177 0 291.5 -91t170.5 -259.5t56 -401.5zM379 733q0 -168 26 -280.5t77 -169t126 -56.5
q76 0 126.5 55t76 167t25.5 284q0 257 -57 382.5t-171 125.5q-75 0 -126 -57t-77 -170t-26 -281z" />
    <glyph glyph-name="Iota" unicode="&#x399;" horiz-adv-x="543" 
d="M131 0v1462h281v-1462h-281z" />
    <glyph glyph-name="Kappa" unicode="&#x39a;" horiz-adv-x="1047" 
d="M1061 0h-311l-248 596l-90 -82v-514h-281v1462h281v-674q9 39 32.5 87.5t55.5 109.5l256 477h301l-357 -651z" />
    <glyph glyph-name="Lambda" unicode="&#x39b;" horiz-adv-x="1055" 
d="M688 1462l367 -1462h-295l-189 844q-13 68 -22.5 123t-15.5 98t-7 74q-5 -48 -11.5 -96.5t-14.5 -97t-19 -97.5l-186 -848h-295l365 1462h323z" />
    <glyph glyph-name="Mu" unicode="&#x39c;" horiz-adv-x="1581" 
d="M676 0l-289 1079h-8q5 -67 8 -126t4.5 -109t1.5 -90v-754h-262v1462h387l270 -1001h7l270 1001h385v-1462h-268v756q0 45 1.5 94.5t4 106t6.5 120.5h-8l-291 -1077h-219z" />
    <glyph glyph-name="Nu" unicode="&#x39d;" horiz-adv-x="1273" 
d="M1143 0h-330l-428 1020h-8q6 -71 9.5 -133.5t5 -114.5t1.5 -94v-678h-262v1462h328l426 -997h8q-4 69 -7 128.5t-5 110.5t-2 93v665h264v-1462z" />
    <glyph glyph-name="Xi" unicode="&#x39e;" horiz-adv-x="891" 
d="M70 0v244h753v-244h-753zM154 645v242h585v-242h-585zM96 1223v239h699v-239h-699z" />
    <glyph glyph-name="Omicron" unicode="&#x39f;" horiz-adv-x="1214" 
d="M1126 733q0 -174 -32 -313.5t-96 -237.5t-161.5 -150t-228.5 -52q-132 0 -230 52.5t-162 151.5t-96 238t-32 313q0 246 59 413t175 252t286 85q177 0 291.5 -91t170.5 -259.5t56 -401.5zM379 733q0 -168 26 -280.5t77 -169t126 -56.5q76 0 126.5 55t76 167t25.5 284
q0 257 -57 382.5t-171 125.5q-75 0 -126 -57t-77 -170t-26 -281z" />
    <glyph glyph-name="Pi" unicode="&#x3a0;" horiz-adv-x="1165" 
d="M131 0v1462h903v-1462h-280v1219h-342v-1219h-281z" />
    <glyph glyph-name="Rho" unicode="&#x3a1;" horiz-adv-x="1004" 
d="M502 1462q223 0 331.5 -115.5t108.5 -336.5q0 -111 -27.5 -201.5t-83.5 -155.5t-141 -100t-201 -35h-77v-518h-281v1462h371zM481 1223h-69v-465h49q67 0 112 25t68 80t23 145q0 112 -45.5 163.5t-137.5 51.5z" />
    <glyph glyph-name="Sigma" unicode="&#x3a3;" horiz-adv-x="924" 
d="M59 0v229l322 537l-303 475v221h743v-239h-260q-36 0 -66.5 0.5t-55 2.5t-44.5 5l295 -463l-323 -535q47 5 90.5 8t83.5 3h319v-244h-801z" />
    <glyph glyph-name="Tau" unicode="&#x3a4;" horiz-adv-x="879" 
d="M578 0h-277v1219h-272v243h819v-243h-270v-1219z" />
    <glyph glyph-name="Upsilon" unicode="&#x3a5;" horiz-adv-x="971" 
d="M487 868l195 594h289l-346 -899v-563h-279v555l-346 907h291z" />
    <glyph glyph-name="Phi" unicode="&#x3a6;" horiz-adv-x="1442" 
d="M858 1483v-180q166 0 278.5 -71t170 -194t57.5 -280q0 -124 -32.5 -226t-96.5 -175t-158.5 -112.5t-218.5 -39.5v-225h-272v225q-126 -1 -221 38t-158 112.5t-95 176t-32 228.5q0 112 29.5 210.5t90.5 173.5t157 117.5t229 41.5v180h272zM586 1069q-79 0 -130.5 -34.5
t-76.5 -102.5t-25 -170q0 -115 26 -186.5t77.5 -104.5t128.5 -33v631zM856 1069v-631q78 0 129.5 36t76.5 108t25 180q0 100 -25.5 168t-77 103.5t-128.5 35.5z" />
    <glyph glyph-name="Chi" unicode="&#x3a7;" horiz-adv-x="969" 
d="M967 0h-301l-181 489l-190 -489h-293l324 743l-297 719h290l160 -461l158 461h295l-293 -717z" />
    <glyph glyph-name="Psi" unicode="&#x3a8;" horiz-adv-x="1475" 
d="M1366 1462v-487q0 -142 -28 -248t-87.5 -176t-153 -104.5t-223.5 -34.5v-412h-270v412q-132 0 -225.5 33t-152 100t-86 169.5t-27.5 241.5v506h280v-514q0 -98 18 -163t63.5 -97.5t129.5 -32.5v807h270v-807q75 0 121.5 29.5t68 93.5t21.5 166v518h281z" />
    <glyph glyph-name="uni03A9" unicode="&#x3a9;" horiz-adv-x="1223" 
d="M614 1241q-80 0 -133.5 -47.5t-79.5 -142.5t-26 -240q0 -130 17.5 -233.5t55 -181.5t95.5 -134v-262h-496v244h277q-72 55 -124 142t-80 204t-28 260q0 208 61.5 349.5t178.5 213.5t282 72q158 0 274 -71.5t179 -213t63 -350.5q0 -144 -27.5 -260t-80 -202.5
t-127.5 -143.5h283v-244h-500v262q63 58 100.5 136.5t54.5 181.5t17 233q0 142 -26 237t-78.5 143t-131.5 48z" />
    <glyph glyph-name="Iotadieresis" unicode="&#x3aa;" horiz-adv-x="543" 
d="M131 0v1462h281v-1462h-281zM-42 1737q0 68 34 102.5t89 34.5q57 0 91 -36t34 -101q0 -63 -34 -99t-91 -36q-55 0 -89 34.5t-34 100.5zM329 1737q0 68 34 102.5t91 34.5t91 -36t34 -101q0 -63 -34 -99t-91 -36t-91 35.5t-34 99.5z" />
    <glyph glyph-name="Upsilondieresis" unicode="&#x3ab;" horiz-adv-x="971" 
d="M487 868l195 594h289l-346 -899v-563h-279v555l-346 907h291zM176 1727q0 68 34 102.5t89 34.5q57 0 91 -36t34 -101q0 -63 -34 -99t-91 -36q-55 0 -89 34.5t-34 100.5zM547 1727q0 68 34 102.5t91 34.5t91 -36t34 -101q0 -63 -34 -99t-91 -36t-91 35.5t-34 99.5z" />
    <glyph glyph-name="alphatonos" unicode="&#x3ac;" horiz-adv-x="1075" 
d="M496 205q53 0 88 36.5t52 111.5t17 190v14q0 183 -39 267.5t-122 84.5q-76 0 -112 -92t-36 -264q0 -177 37.5 -262.5t114.5 -85.5zM408 -20q-158 0 -246 150.5t-88 424.5q0 281 93 433.5t257 152.5q91 0 151.5 -44.5t98.5 -131.5h10q12 49 27.5 89t33.5 66h232
q-17 -59 -30 -131.5t-20 -150.5t-7 -154v-344q0 -64 18.5 -97.5t52.5 -33.5q17 0 31 3t25 7v-215q-7 -6 -29.5 -11.5t-46.5 -9t-39 -3.5q-108 0 -166.5 39.5t-89.5 130.5h-17q-28 -55 -66 -93t-84.5 -57.5t-100.5 -19.5zM452 1241v29q6 21 16.5 63.5t21.5 91.5t19.5 91
t10.5 63h244v-25q-20 -49 -44 -102.5t-50.5 -107t-55.5 -103.5h-162z" />
    <glyph glyph-name="epsilontonos" unicode="&#x3ad;" horiz-adv-x="831" 
d="M616 680v-201h-88q-69 0 -111 -17t-60.5 -49t-18.5 -77q0 -43 19 -72t55.5 -44t87.5 -15q65 0 136 21t134 61v-234q-72 -41 -146 -57t-171 -16q-203 0 -294 92.5t-91 240.5q0 105 56.5 178t156.5 93v10q-80 26 -123 92t-43 158q0 89 44 156t124 104t186 37
q78 0 153.5 -19t157.5 -65l-90 -203q-49 32 -98.5 49t-93.5 17q-61 0 -93 -27.5t-32 -77.5q0 -73 41.5 -104t130.5 -31h71zM374 1241v29q6 21 16.5 63.5t21.5 91.5t19.5 91t10.5 63h244v-25q-20 -49 -44 -102.5t-50.5 -107t-55.5 -103.5h-162z" />
    <glyph glyph-name="etatonos" unicode="&#x3ae;" horiz-adv-x="1026" 
d="M618 1141q95 0 160.5 -46t100 -135t34.5 -219v-1233h-266v1156q0 118 -24.5 177.5t-83.5 59.5q-57 0 -92 -35t-50.5 -114.5t-15.5 -212.5v-539h-266v1120h211l28 -143h17q25 53 61 89.5t83 55.5t103 19zM438 1241v29q6 21 16.5 63.5t21.5 91.5t19.5 91t10.5 63h244v-25
q-20 -49 -44 -102.5t-50.5 -107t-55.5 -103.5h-162z" />
    <glyph glyph-name="iotatonos" unicode="&#x3af;" horiz-adv-x="618" 
d="M381 1120v-794q0 -58 20 -85.5t60 -27.5q32 0 64 9.5t61 25.5v-217q-43 -26 -93.5 -38.5t-109.5 -12.5q-92 0 -151.5 34.5t-88 110t-28.5 197.5v798h266zM167 1241v29q6 21 16.5 63.5t21.5 91.5t19.5 91t10.5 63h244v-25q-20 -49 -44 -102.5t-50.5 -107t-55.5 -103.5
h-162z" />
    <glyph glyph-name="upsilondieresistonos" unicode="&#x3b0;" horiz-adv-x="1022" 
d="M506 -18q-139 1 -225.5 54.5t-126.5 167.5t-41 296v620h266v-649q0 -127 28.5 -190.5t104.5 -63.5q82 0 119 87t37 282q0 128 -14.5 258.5t-45.5 275.5h264q24 -109 37.5 -194t19 -164.5t5.5 -173.5q0 -303 -110.5 -454.5t-317.5 -151.5zM672 1677v-20q-12 -37 -31 -81.5
t-43 -93.5t-53 -100h-127v27q11 54 19 103t13 91.5t5 73.5h217zM262 1516q54 0 86.5 -36.5t32.5 -101.5q0 -63 -32.5 -100t-86.5 -37q-52 0 -84 36.5t-32 100.5q0 66 32 102t84 36zM744 1520q53 0 86 -37t33 -105q0 -60 -33 -96.5t-86 -36.5q-52 0 -84.5 36t-32.5 99
q0 68 32.5 104t84.5 36z" />
    <glyph glyph-name="alpha" unicode="&#x3b1;" horiz-adv-x="1075" 
d="M496 205q53 0 88 36.5t52 111.5t17 190v14q0 183 -39 267.5t-122 84.5q-76 0 -112 -92t-36 -264q0 -177 37.5 -262.5t114.5 -85.5zM408 -20q-158 0 -246 150.5t-88 424.5q0 281 93 433.5t257 152.5q91 0 151.5 -44.5t98.5 -131.5h10q12 49 27.5 89t33.5 66h232
q-17 -59 -30 -131.5t-20 -150.5t-7 -154v-344q0 -64 18.5 -97.5t52.5 -33.5q17 0 31 3t25 7v-215q-7 -6 -29.5 -11.5t-46.5 -9t-39 -3.5q-108 0 -166.5 39.5t-89.5 130.5h-17q-28 -55 -66 -93t-84.5 -57.5t-100.5 -19.5z" />
    <glyph glyph-name="beta" unicode="&#x3b2;" horiz-adv-x="1049" 
d="M528 1567q123 0 209.5 -48t132 -135t45.5 -206q0 -155 -53 -241t-160 -108v-8q145 -21 211 -118t66 -271q0 -139 -44 -240.5t-125.5 -156.5t-195.5 -55q-75 0 -132 17t-101 46v-535h-266v1608q0 144 49 244.5t141.5 153.5t222.5 53zM520 1341q-46 0 -77 -27.5t-46.5 -82
t-15.5 -135.5v-822q28 -25 74.5 -43t83.5 -18q83 0 126.5 60.5t43.5 183.5q0 75 -21 127.5t-60.5 80t-97.5 27.5h-43v228h29q68 0 99.5 55.5t31.5 161.5q0 100 -34 152t-93 52z" />
    <glyph glyph-name="gamma" unicode="&#x3b3;" horiz-adv-x="913" 
d="M905 1120l-297 -1087q-20 -79 -37 -171t-26.5 -184t-9.5 -170h-285q0 60 10.5 150t26.5 183t32 159l-313 1120h285l94 -389q17 -65 31 -130t25.5 -128t17.5 -125h6q6 54 17 113t25.5 124t29.5 136l94 399h274z" />
    <glyph glyph-name="delta" unicode="&#x3b4;" horiz-adv-x="991" 
d="M551 1569q98 0 188 -26.5t168 -74.5l-92 -217q-73 48 -136.5 70t-117.5 22q-58 0 -89.5 -23.5t-31.5 -68.5q0 -33 16 -63.5t56.5 -68.5t112.5 -95q99 -77 164.5 -159t98 -181.5t32.5 -228.5q0 -141 -50.5 -248t-146.5 -167t-234 -60q-139 0 -231.5 56t-139 159.5
t-46.5 244.5q0 114 34.5 206t101.5 159.5t163 105.5q-61 50 -104.5 102t-66 109.5t-22.5 120.5q0 157 100.5 241.5t272.5 84.5zM508 786q-51 -21 -88.5 -70.5t-57.5 -116.5t-20 -144q0 -76 17.5 -132t51 -87t81.5 -31q49 0 83.5 29.5t53 86.5t18.5 140q0 103 -33.5 182.5
t-105.5 142.5z" />
    <glyph glyph-name="epsilon" unicode="&#x3b5;" horiz-adv-x="831" 
d="M616 680v-201h-88q-69 0 -111 -17t-60.5 -49t-18.5 -77q0 -43 19 -72t55.5 -44t87.5 -15q65 0 136 21t134 61v-234q-72 -41 -146 -57t-171 -16q-203 0 -294 92.5t-91 240.5q0 105 56.5 178t156.5 93v10q-80 26 -123 92t-43 158q0 89 44 156t124 104t186 37
q78 0 153.5 -19t157.5 -65l-90 -203q-49 32 -98.5 49t-93.5 17q-61 0 -93 -27.5t-32 -77.5q0 -73 41.5 -104t130.5 -31h71z" />
    <glyph glyph-name="zeta" unicode="&#x3b6;" horiz-adv-x="813" 
d="M772 -55q0 -76 -29.5 -160t-78.5 -166h-271q32 45 58.5 96.5t42.5 96.5t16 69q0 29 -11 51.5t-48 44.5t-115 50q-94 34 -152 84.5t-84 135.5t-26 220q0 116 25.5 225t77 216t129.5 216.5t183 225.5q-22 -6 -46.5 -10.5t-50.5 -6.5t-56 -2h-223v225h651v-180
q-101 -114 -179.5 -225t-132 -220.5t-81 -220.5t-27.5 -227q0 -65 16 -108.5t59.5 -75t127.5 -61.5q68 -22 118.5 -59t78.5 -94t28 -140z" />
    <glyph glyph-name="eta" unicode="&#x3b7;" horiz-adv-x="1026" 
d="M618 1141q95 0 160.5 -46t100 -135t34.5 -219v-1233h-266v1156q0 118 -24.5 177.5t-83.5 59.5q-57 0 -92 -35t-50.5 -114.5t-15.5 -212.5v-539h-266v1120h211l28 -143h17q25 53 61 89.5t83 55.5t103 19z" />
    <glyph glyph-name="theta" unicode="&#x3b8;" horiz-adv-x="1022" 
d="M948 780q0 -269 -48.5 -446.5t-146 -265.5t-245.5 -88q-220 0 -327 196t-107 604q0 269 48 446t145 265t243 88q220 0 329 -196.5t109 -602.5zM508 197q83 0 124 119t44 360h-332q5 -240 43.5 -359.5t120.5 -119.5zM512 1362q-82 0 -120.5 -115.5t-43.5 -353.5h332
q-7 238 -47.5 353.5t-120.5 115.5z" />
    <glyph glyph-name="iota" unicode="&#x3b9;" horiz-adv-x="618" 
d="M381 1120v-794q0 -58 20 -85.5t60 -27.5q32 0 64 9.5t61 25.5v-217q-43 -26 -93.5 -38.5t-109.5 -12.5q-92 0 -151.5 34.5t-88 110t-28.5 197.5v798h266z" />
    <glyph glyph-name="kappa" unicode="&#x3ba;" horiz-adv-x="969" 
d="M958 1120l-290 -458l305 -662h-291l-197 463l-104 -103v-360h-266v1120h266v-241q0 -73 -2 -140.5t-10 -132.5h8q18 40 37.5 77t36.5 65l221 372h286z" />
    <glyph glyph-name="lambda" unicode="&#x3bb;" horiz-adv-x="983" 
d="M8 0l330 1071l-33 135q-13 56 -39 99t-88 43q-21 0 -40 -3.5t-38 -9.5v221q19 6 38 9t40.5 4.5t44.5 1.5q90 0 155.5 -34.5t113 -114.5t83.5 -218l226 -868q11 -45 25.5 -71t34.5 -37t46 -11q20 0 37 3t31 9v-233q-16 -5 -35 -8.5t-39.5 -5.5t-42.5 -2q-84 0 -140.5 30.5
t-95 100.5t-69.5 188l-59 244q-5 18 -9 37.5t-7 39t-6 39.5t-5 41h-8q-1 -35 -6 -65.5t-13 -56.5l-153 -578h-279z" />
    <glyph glyph-name="uni03BC" unicode="&#x3bc;" horiz-adv-x="1026" 
d="M911 1120v-1120h-209l-30 143h-13q-17 -51 -42.5 -87.5t-56.5 -56t-66 -19.5q-43 0 -70 22t-47 68h-6q3 -33 4.5 -69.5t2.5 -75t1 -77.5v-340h-266v1612h266v-657q0 -121 25 -183.5t81 -62.5q67 0 101 46.5t46.5 128.5t12.5 188v540h266z" />
    <glyph glyph-name="nu" unicode="&#x3bd;" horiz-adv-x="948" 
d="M12 1120h279l131 -653q7 -35 12.5 -66.5t10 -60t6.5 -55.5h8q61 124 96.5 255.5t51.5 276t16 303.5h268q0 -219 -37 -409.5t-116 -365t-206 -345.5h-251z" />
    <glyph glyph-name="xi" unicode="&#x3be;" horiz-adv-x="813" 
d="M74 422q0 95 24 171.5t75.5 132t135.5 85.5v8q-64 16 -106 49.5t-62 86.5t-20 126q0 63 25.5 116.5t69 91t97.5 52.5q-28 -4 -52.5 -6t-46 -3t-44.5 -1h-76v225h637v-223h-88q-61 0 -109 -15.5t-81.5 -45t-50.5 -72.5t-17 -98q0 -95 47 -137.5t150 -42.5h100v-226h-104
q-76 0 -128 -24.5t-79 -76.5t-27 -134q0 -64 17 -105.5t59.5 -69.5t120.5 -53q75 -23 124.5 -63t74 -97t24.5 -134q0 -76 -30.5 -158.5t-80.5 -161.5h-270q33 45 59.5 96.5t42 96.5t15.5 69q0 33 -12 57.5t-43.5 44t-90.5 37.5q-100 32 -161.5 86.5t-90 133.5t-28.5 182z
" />
    <glyph glyph-name="omicron" unicode="&#x3bf;" horiz-adv-x="999" 
d="M926 563q0 -117 -23.5 -222t-74 -186t-132 -128t-198.5 -47q-109 0 -189 46t-132 126.5t-77.5 186t-25.5 224.5q0 169 44.5 299.5t139 204.5t244.5 74q129 0 224.5 -67t147.5 -195.5t52 -315.5zM344 559q0 -116 16.5 -195t51 -119t88.5 -40q55 0 88.5 39.5t49 119.5
t15.5 199q0 118 -15.5 196t-49 117t-88.5 39q-82 0 -119 -87t-37 -269z" />
    <glyph glyph-name="pi" unicode="&#x3c0;" horiz-adv-x="1151" 
d="M1006 215q23 0 51 7t51 20v-207q-37 -26 -87.5 -39.5t-102.5 -13.5q-124 0 -184 83.5t-60 253.5v576h-228v-895h-266v895h-168v121l131 104h967v-225h-168v-569q0 -58 16.5 -84.5t47.5 -26.5z" />
    <glyph glyph-name="rho" unicode="&#x3c1;" horiz-adv-x="1016" 
d="M944 559q0 -166 -35.5 -297t-115.5 -206.5t-213 -75.5q-64 0 -114.5 22t-88.5 57h-12q6 -75 8 -145t2 -127v-279h-266v1053q0 173 41 303.5t133 203.5t245 73q135 0 227.5 -65t140.5 -194t48 -323zM524 915q-75 0 -112 -70t-37 -227v-352q26 -29 61.5 -45t75.5 -16
q82 0 121 81t39 273q0 195 -35.5 275.5t-112.5 80.5z" />
    <glyph glyph-name="uni03C2" unicode="&#x3c2;" horiz-adv-x="821" 
d="M510 1141q69 0 136.5 -18.5t133.5 -55.5l-73 -215q-46 29 -89.5 43t-97.5 14q-88 0 -132 -90t-44 -278q0 -95 15.5 -151t58 -89.5t123.5 -64.5q75 -27 126.5 -67t78 -96.5t26.5 -133.5q0 -76 -31 -158.5t-82 -161.5h-268q32 45 58 96.5t41.5 96.5t15.5 69q0 32 -9 57
t-41.5 47.5t-101.5 45.5q-76 26 -129 62t-86.5 92t-49 139.5t-15.5 203.5q0 204 49 340t146.5 204.5t240.5 68.5z" />
    <glyph glyph-name="sigma" unicode="&#x3c3;" horiz-adv-x="1059" 
d="M942 485q0 -156 -53 -269.5t-151 -174.5t-232 -61q-141 0 -237.5 65t-145.5 186.5t-49 292.5q0 202 59 334t178.5 197t302.5 65h402v-225h-205q65 -76 98 -179t33 -231zM344 526q0 -111 19 -182t56 -105t89 -34q80 0 121 81t41 242q0 66 -8.5 127.5t-26.5 121t-47 118.5
h-31q-112 0 -162.5 -89t-50.5 -280z" />
    <glyph glyph-name="tau" unicode="&#x3c4;" horiz-adv-x="766" 
d="M727 1120v-225h-252v-539q0 -72 22.5 -108.5t71.5 -36.5q29 0 61 7.5t66 21.5v-213q-40 -23 -94.5 -36.5t-114.5 -13.5q-97 0 -159 39t-91.5 120t-29.5 208v551h-199v121l131 104h588z" />
    <glyph glyph-name="upsilon" unicode="&#x3c5;" horiz-adv-x="1022" 
d="M506 -18q-139 1 -225.5 54.5t-126.5 167.5t-41 296v620h266v-649q0 -127 28.5 -190.5t104.5 -63.5q82 0 119 87t37 282q0 128 -14.5 258.5t-45.5 275.5h264q24 -109 37.5 -194t19 -164.5t5.5 -173.5q0 -303 -110.5 -454.5t-317.5 -151.5z" />
    <glyph glyph-name="phi" unicode="&#x3c6;" horiz-adv-x="1329" 
d="M268 1139l203 -121q-60 -97 -93.5 -220.5t-33.5 -246.5q0 -99 21 -169t61.5 -111.5t99.5 -57.5v502q0 213 83.5 317.5t256.5 104.5q124 0 211 -68t132.5 -189.5t45.5 -281.5q0 -172 -54 -303.5t-158.5 -211t-256.5 -95.5v-480h-260v480q-145 13 -246 83.5t-153.5 192.5
t-52.5 291q0 163 48 307.5t146 276.5zM866 911q-44 0 -61 -43.5t-17 -140.5v-514q61 7 105 54.5t68 130.5t24 198q0 102 -15 172.5t-41.5 107t-62.5 35.5z" />
    <glyph glyph-name="chi" unicode="&#x3c7;" horiz-adv-x="940" 
d="M168 1137q81 0 136.5 -28.5t94 -92t66.5 -168.5l39 -160l151 432h271l-322 -776l107 -397q26 -92 44.5 -138t41 -60.5t59.5 -14.5q20 0 38.5 3t37.5 7v-221q-28 -6 -62 -10.5t-82 -4.5q-81 0 -137.5 29.5t-97 100t-74.5 192.5l-49 193l-174 -515h-283l363 859l-115 399
q-23 85 -49.5 116t-67.5 31q-18 0 -38 -3.5t-35 -8.5v219q24 8 60.5 12.5t76.5 4.5z" />
    <glyph glyph-name="psi" unicode="&#x3c8;" horiz-adv-x="1368" 
d="M815 1554v-1337q71 10 113 49t61 116.5t19 201.5q0 128 -17 261.5t-51 274.5h260q41 -161 58.5 -287.5t17.5 -254.5q0 -185 -52 -315t-154.5 -201t-254.5 -80v-474h-260v474q-147 6 -246.5 62.5t-149.5 172t-50 297.5v606h266v-592q0 -101 17.5 -167.5t57 -101.5
t105.5 -42v1337h260z" />
    <glyph glyph-name="omega" unicode="&#x3c9;" horiz-adv-x="1393" 
d="M1208 1120q34 -102 54 -195t29 -186t9 -196q0 -177 -42 -303t-120 -193t-188 -67q-97 0 -160.5 50t-89.5 154h-8q-28 -104 -89.5 -154t-164.5 -50q-109 0 -186.5 68t-118.5 194t-41 301q0 106 9 197t29.5 182.5t53.5 197.5h269q-46 -127 -70.5 -268.5t-24.5 -296.5
q0 -170 25.5 -250t85.5 -80q37 0 58 26t29.5 85.5t8.5 157.5v272h260v-272q1 -102 10 -160t30 -82.5t59 -26.5q37 0 61 35.5t36.5 108t12.5 182.5q0 144 -23 290.5t-73 278.5h270z" />
    <glyph glyph-name="iotadieresis" unicode="&#x3ca;" horiz-adv-x="618" 
d="M381 1120v-794q0 -58 20 -85.5t60 -27.5q32 0 64 9.5t61 25.5v-217q-43 -26 -93.5 -38.5t-109.5 -12.5q-92 0 -151.5 34.5t-88 110t-28.5 197.5v798h266zM-37 1395q0 68 34 102.5t89 34.5q57 0 91 -36t34 -101q0 -63 -34 -99t-91 -36q-55 0 -89 34.5t-34 100.5zM334 1395
q0 68 34 102.5t91 34.5t91 -36t34 -101q0 -63 -34 -99t-91 -36t-91 35.5t-34 99.5z" />
    <glyph glyph-name="upsilondieresis" unicode="&#x3cb;" horiz-adv-x="1022" 
d="M506 -18q-139 1 -225.5 54.5t-126.5 167.5t-41 296v620h266v-649q0 -127 28.5 -190.5t104.5 -63.5q82 0 119 87t37 282q0 128 -14.5 258.5t-45.5 275.5h264q24 -109 37.5 -194t19 -164.5t5.5 -173.5q0 -303 -110.5 -454.5t-317.5 -151.5zM196 1395q0 68 34 102.5t89 34.5
q57 0 91 -36t34 -101q0 -63 -34 -99t-91 -36q-55 0 -89 34.5t-34 100.5zM567 1395q0 68 34 102.5t91 34.5t91 -36t34 -101q0 -63 -34 -99t-91 -36t-91 35.5t-34 99.5z" />
    <glyph glyph-name="omicrontonos" unicode="&#x3cc;" horiz-adv-x="999" 
d="M926 563q0 -117 -23.5 -222t-74 -186t-132 -128t-198.5 -47q-109 0 -189 46t-132 126.5t-77.5 186t-25.5 224.5q0 169 44.5 299.5t139 204.5t244.5 74q129 0 224.5 -67t147.5 -195.5t52 -315.5zM344 559q0 -116 16.5 -195t51 -119t88.5 -40q55 0 88.5 39.5t49 119.5
t15.5 199q0 118 -15.5 196t-49 117t-88.5 39q-82 0 -119 -87t-37 -269zM393 1241v29q6 21 16.5 63.5t21.5 91.5t19.5 91t10.5 63h244v-25q-20 -49 -44 -102.5t-50.5 -107t-55.5 -103.5h-162z" />
    <glyph glyph-name="upsilontonos" unicode="&#x3cd;" horiz-adv-x="1022" 
d="M506 -18q-139 1 -225.5 54.5t-126.5 167.5t-41 296v620h266v-649q0 -127 28.5 -190.5t104.5 -63.5q82 0 119 87t37 282q0 128 -14.5 258.5t-45.5 275.5h264q24 -109 37.5 -194t19 -164.5t5.5 -173.5q0 -303 -110.5 -454.5t-317.5 -151.5zM399 1241v29q6 21 16.5 63.5
t21.5 91.5t19.5 91t10.5 63h244v-25q-20 -49 -44 -102.5t-50.5 -107t-55.5 -103.5h-162z" />
    <glyph glyph-name="omegatonos" unicode="&#x3ce;" horiz-adv-x="1393" 
d="M1208 1120q34 -102 54 -195t29 -186t9 -196q0 -177 -42 -303t-120 -193t-188 -67q-97 0 -160.5 50t-89.5 154h-8q-28 -104 -89.5 -154t-164.5 -50q-109 0 -186.5 68t-118.5 194t-41 301q0 106 9 197t29.5 182.5t53.5 197.5h269q-46 -127 -70.5 -268.5t-24.5 -296.5
q0 -170 25.5 -250t85.5 -80q37 0 58 26t29.5 85.5t8.5 157.5v272h260v-272q1 -102 10 -160t30 -82.5t59 -26.5q37 0 61 35.5t36.5 108t12.5 182.5q0 144 -23 290.5t-73 278.5h270zM589 1241v29q6 21 16.5 63.5t21.5 91.5t19.5 91t10.5 63h244v-25q-20 -49 -44 -102.5
t-50.5 -107t-55.5 -103.5h-162z" />
    <glyph glyph-name="uni03D1" unicode="&#x3d1;" horiz-adv-x="1143" 
d="M563 1579q95 0 172.5 -38.5t134.5 -114.5t91.5 -188.5t44.5 -260.5h114v-225h-110v-21.5v-21.5q-5 -177 -33.5 -312.5t-85.5 -228.5t-146 -140.5t-215 -47.5q-97 0 -170 22t-121 64t-72 102t-24 137q0 28 4 63t7.5 67.5t3.5 51.5q0 41 -15.5 58.5t-46.5 17.5
q-10 0 -22.5 -2t-28.5 -8l-33 215q26 12 70 20.5t102 8.5q104 0 170 -63.5t66 -182.5q0 -37 -3 -72.5t-6 -69.5t-3 -67q0 -72 29 -108.5t89 -36.5q68 0 114 49t71 161t30 300q0 12 -1 23t-1 22q-156 2 -280.5 56t-196.5 157.5t-72 253.5q0 104 39 185.5t121.5 128
t212.5 46.5zM555 1362q-51 0 -76.5 -37t-25.5 -111q0 -72 33 -125.5t96.5 -82.5t154.5 -29q-6 87 -19.5 157.5t-36 121.5t-53.5 78.5t-73 27.5z" />
    <glyph glyph-name="uni03D2" unicode="&#x3d2;" horiz-adv-x="977" 
d="M485 885q13 50 26 95.5t26.5 88.5t28.5 85.5t32 86.5q28 74 58 126.5t75 80t115 27.5q38 0 71.5 -7.5t61.5 -21.5v-227q-13 6 -27 9t-26 3q-35 0 -67.5 -43.5t-76.5 -147.5q-18 -43 -38 -96.5t-40 -114.5t-40 -128t-39 -136v-565h-279v555l-346 907h299z" />
    <glyph glyph-name="uni03D6" unicode="&#x3d6;" horiz-adv-x="1487" 
d="M1460 1120v-225h-170q18 -67 29 -132t16.5 -130.5t5.5 -136.5q0 -163 -42 -278.5t-119.5 -176.5t-186.5 -61q-97 0 -157 47t-86 151h-11q-28 -103 -86 -150.5t-159 -47.5q-165 0 -257 136.5t-92 379.5q0 74 6 139t18.5 129t29.5 131h-176v121l131 104h1306zM1024 895
h-561q-17 -62 -28.5 -122.5t-17 -122t-5.5 -130.5q0 -154 25.5 -225.5t82.5 -71.5q56 0 75 62t19 219v162h260v-162q0 -108 8 -169.5t28 -86.5t57 -25q53 0 80.5 72.5t27.5 220.5q0 66 -5.5 128t-16.5 124.5t-29 126.5z" />
    <glyph glyph-name="uni0400" unicode="&#x400;" horiz-adv-x="874" 
d="M788 0h-657v1462h657v-239h-376v-344h350v-240h-350v-395h376v-244zM442 1901q19 -43 50 -101.5t63.5 -113t54.5 -86.5v-27h-190q-27 24 -66.5 64t-82 86t-78.5 88.5t-56 70.5v19h305z" />
    <glyph glyph-name="uni0401" unicode="&#x401;" horiz-adv-x="874" 
d="M788 0h-657v1462h657v-239h-376v-344h350v-240h-350v-395h376v-244zM145 1727q0 68 34 102.5t89 34.5q57 0 91 -36t34 -101q0 -63 -34 -99t-91 -36q-55 0 -89 34.5t-34 100.5zM516 1727q0 68 34 102.5t91 34.5t91 -36t34 -101q0 -63 -34 -99t-91 -36t-91 35.5t-34 99.5z
" />
    <glyph glyph-name="uni0402" unicode="&#x402;" horiz-adv-x="1186" 
d="M782 -20q-34 0 -64.5 5.5t-58.5 14.5v238q14 -8 31.5 -13.5t34.5 -5.5q31 0 50 14t28 44.5t10 80.5v187q0 75 -31.5 110t-97.5 35h-125v-690h-278v1219h-252v243h792v-243h-262v-285h162q183 0 277 -101.5t94 -287.5v-164q-1 -195 -79.5 -298t-230.5 -103z" />
    <glyph glyph-name="uni0403" unicode="&#x403;" horiz-adv-x="844" 
d="M819 1462v-243h-407v-1219h-281v1462h688zM829 1901v-19q-21 -29 -54 -68t-72.5 -82t-80 -84.5t-76.5 -74.5h-190v27q36 54 66 105.5t55.5 100.5t46.5 95h305z" />
    <glyph glyph-name="uni0404" unicode="&#x404;" horiz-adv-x="1022" 
d="M645 1241q-66 0 -112 -29.5t-76 -80.5t-47.5 -117.5t-26.5 -141.5h410v-241h-412q3 -92 22 -167t53.5 -129t85 -83t115.5 -29q77 0 142.5 24t128.5 58v-250q-64 -38 -142 -56.5t-165 -18.5q-169 0 -287.5 88t-181 255.5t-62.5 405.5q0 164 36 301.5t105 239t169.5 157.5
t230.5 56q92 0 178 -23.5t166 -70.5l-80 -232q-61 40 -121.5 62t-128.5 22z" />
    <glyph glyph-name="uni0405" unicode="&#x405;" horiz-adv-x="897" 
d="M836 428q0 -132 -53 -233t-149.5 -158t-227.5 -57q-61 0 -118 7.5t-112 25t-110 46.5v287q80 -52 166 -79t159 -27q54 0 89.5 21t53 57t17.5 81q0 48 -15 84.5t-57.5 73t-124.5 84.5q-64 38 -115.5 78t-88 88.5t-55.5 112.5t-19 151q-1 124 48.5 217t143 144.5
t224.5 50.5q89 0 174.5 -24t164.5 -68l-77 -248q-71 43 -134 63.5t-118 20.5q-48 0 -80.5 -18.5t-49 -50.5t-16.5 -73q0 -52 16 -88t60.5 -70.5t128.5 -82.5q91 -53 152 -112.5t92 -133t31 -170.5z" />
    <glyph glyph-name="uni0406" unicode="&#x406;" horiz-adv-x="543" 
d="M131 0v1462h281v-1462h-281z" />
    <glyph glyph-name="uni0407" unicode="&#x407;" horiz-adv-x="543" 
d="M131 0v1462h281v-1462h-281zM-42 1737q0 68 34 102.5t89 34.5q57 0 91 -36t34 -101q0 -63 -34 -99t-91 -36q-55 0 -89 34.5t-34 100.5zM329 1737q0 68 34 102.5t91 34.5t91 -36t34 -101q0 -63 -34 -99t-91 -36t-91 35.5t-34 99.5z" />
    <glyph glyph-name="uni0408" unicode="&#x408;" horiz-adv-x="541" 
d="M41 -434q-41 0 -81 5t-75 17v240q25 -9 53 -15t60 -6q50 0 79.5 23.5t42.5 79.5t13 153v1399h279v-1394q0 -190 -43 -300t-126 -156t-202 -46z" />
    <glyph glyph-name="uni0409" unicode="&#x409;" horiz-adv-x="1569" 
d="M141 -18q-43 0 -75.5 5.5t-55.5 14.5v238q19 -10 36 -14.5t36 -4.5q32 0 52.5 20t35 62.5t25.5 108.5q8 51 19.5 151t26 239t30 306.5t30.5 353.5h684v-555h39q157 0 265 -49t164 -147t56 -246q0 -223 -123.5 -344t-347.5 -121h-325v1202h-166q-10 -137 -21.5 -262
t-22.5 -233t-22 -196t-21.5 -151t-19.5 -98q-26 -98 -62 -159.5t-92.5 -90.5t-144.5 -30zM983 240h41q100 0 151.5 54.5t51.5 162.5q0 72 -21 118.5t-66 69.5t-118 23h-39v-428z" />
    <glyph glyph-name="uni040A" unicode="&#x40a;" horiz-adv-x="1565" 
d="M131 0v1462h281v-567h295v567h272v-567h37q159 0 267.5 -48t164 -143.5t55.5 -238.5q0 -224 -124.5 -344.5t-348.5 -120.5h-323v655h-295v-655h-281zM979 240h39q101 0 152 54.5t51 162.5q0 68 -22 111.5t-66.5 65t-114.5 21.5h-39v-415z" />
    <glyph glyph-name="uni040B" unicode="&#x40b;" horiz-adv-x="1196" 
d="M821 1462v-243h-262v-285h162q182 0 277.5 -101.5t95.5 -287.5v-545h-281v545q0 75 -31.5 110t-97.5 35h-125v-690h-278v1219h-252v243h792z" />
    <glyph glyph-name="uni040C" unicode="&#x40c;" horiz-adv-x="1042" 
d="M1057 0h-312l-333 756v-756h-281v1462h281v-692l338 692h301l-369 -698zM915 1901v-19q-21 -29 -54 -68t-72.5 -82t-80 -84.5t-76.5 -74.5h-190v27q36 54 66 105.5t55.5 100.5t46.5 95h305z" />
    <glyph glyph-name="uni040D" unicode="&#x40d;" horiz-adv-x="1292" 
d="M131 1462h272v-661q0 -31 -1 -67t-2.5 -77t-4 -88.5t-6.5 -101.5h8l426 995h340v-1462h-272v672q0 32 1 69t2.5 79.5t5 90.5t7.5 101h-8l-430 -1012h-338v1462zM639 1901q19 -43 50 -101.5t63.5 -113t54.5 -86.5v-27h-190q-27 24 -66.5 64t-82 86t-78.5 88.5t-56 70.5v19
h305z" />
    <glyph glyph-name="uni040E" unicode="&#x40e;" horiz-adv-x="987" 
d="M985 1462l-321 -1034q-46 -148 -101.5 -248t-137.5 -150t-210 -50q-46 0 -87 7.5t-79 20.5v244q32 -17 64.5 -25t64.5 -8q49 0 80 18.5t53 62.5t43 120l-352 1042h295l141 -481q13 -41 23.5 -82.5t20.5 -85.5t18 -92h12q7 47 14.5 85.5t16.5 76t20 80.5l129 499h293z
M836 1917q-9 -114 -51 -191t-116 -116t-180 -39q-111 0 -185 38.5t-112.5 115.5t-46.5 192h211q3 -101 33.5 -149t99.5 -48q65 0 97 48.5t37 148.5h213z" />
    <glyph glyph-name="uni040F" unicode="&#x40f;" horiz-adv-x="1165" 
d="M1034 0h-317v-432h-271v432h-315v1462h281v-1218h342v1218h280v-1462z" />
    <glyph glyph-name="uni0410" unicode="&#x410;" horiz-adv-x="1077" 
d="M778 0l-76 352h-325l-76 -352h-301l354 1462h363l360 -1462h-299zM659 596l-79 387q-8 48 -15.5 94t-14 88.5t-11.5 79.5q-3 -35 -9 -77t-14 -88t-18 -93l-78 -391h239z" />
    <glyph glyph-name="uni0411" unicode="&#x411;" horiz-adv-x="1006" 
d="M131 0v1462h721v-243h-440v-312h47q158 0 266 -49t163.5 -147t55.5 -246q0 -224 -123 -344.5t-346 -120.5h-344zM412 240h51q100 0 151.5 54.5t51.5 162.5q0 72 -22.5 118.5t-67.5 69.5t-115 23h-49v-428z" />
    <glyph glyph-name="uni0412" unicode="&#x412;" horiz-adv-x="1079" 
d="M131 1462h385q226 0 338.5 -88.5t112.5 -271.5q0 -86 -23.5 -153.5t-67.5 -111.5t-106 -61v-10q78 -21 127.5 -66t72.5 -114t23 -162q0 -130 -51.5 -225t-148.5 -147t-232 -52h-430v1462zM412 870h104q85 0 126.5 49t41.5 144q0 83 -43 126.5t-129 43.5h-100v-363z
M412 647v-411h127q84 0 126 52t42 158q0 65 -21 109.5t-60.5 68t-97.5 23.5h-116z" />
    <glyph glyph-name="uni0413" unicode="&#x413;" horiz-adv-x="844" 
d="M819 1462v-243h-407v-1219h-281v1462h688z" />
    <glyph glyph-name="uni0414" unicode="&#x414;" horiz-adv-x="1227" 
d="M1049 1462v-1218h143v-676h-270v432h-641v-432h-271v676h90q53 138 94 281.5t69.5 294t45.5 310.5t23 332h717zM768 1225h-184q-7 -132 -22.5 -259.5t-38.5 -250t-54 -240t-70 -231.5h369v981z" />
    <glyph glyph-name="uni0415" unicode="&#x415;" horiz-adv-x="874" 
d="M788 0h-657v1462h657v-239h-376v-344h350v-240h-350v-395h376v-244z" />
    <glyph glyph-name="uni0416" unicode="&#x416;" horiz-adv-x="1505" 
d="M338 762l-352 700h299l331 -700v700h271v-700l334 700h297l-355 -700l355 -762h-304l-327 750v-750h-271v750l-329 -750h-303z" />
    <glyph glyph-name="uni0417" unicode="&#x417;" horiz-adv-x="991" 
d="M860 1122q0 -142 -66 -232.5t-194 -119.5v-8q146 -17 221.5 -108t75.5 -244q0 -124 -50.5 -221t-158.5 -153t-280 -56q-103 0 -191.5 16.5t-161.5 50.5v266q40 -26 93.5 -46.5t111 -32t107.5 -11.5q129 0 186 49.5t57 159.5q0 106 -67 157.5t-201 51.5h-121v240h111
q89 0 143 18.5t78.5 61t24.5 114.5q0 83 -44.5 123.5t-130.5 40.5q-70 0 -129 -25.5t-106 -72.5l-111 205q61 50 120.5 80t129 43.5t158.5 13.5q121 0 209.5 -45t137 -126t48.5 -190z" />
    <glyph glyph-name="uni0418" unicode="&#x418;" horiz-adv-x="1292" 
d="M131 1462h272v-661q0 -31 -1 -67t-2.5 -77t-4 -88.5t-6.5 -101.5h8l426 995h340v-1462h-272v672q0 32 1 69t2.5 79.5t5 90.5t7.5 101h-8l-430 -1012h-338v1462z" />
    <glyph glyph-name="uni0419" unicode="&#x419;" horiz-adv-x="1292" 
d="M131 1462h272v-661q0 -31 -1 -67t-2.5 -77t-4 -88.5t-6.5 -101.5h8l426 995h340v-1462h-272v672q0 32 1 69t2.5 79.5t5 90.5t7.5 101h-8l-430 -1012h-338v1462zM992 1917q-9 -114 -51 -191t-116 -116t-180 -39q-111 0 -185 38.5t-112.5 115.5t-46.5 192h211
q3 -101 33.5 -149t99.5 -48q65 0 97 48.5t37 148.5h213z" />
    <glyph glyph-name="uni041A" unicode="&#x41a;" horiz-adv-x="1042" 
d="M1057 0h-312l-333 756v-756h-281v1462h281v-692l338 692h301l-369 -698z" />
    <glyph glyph-name="uni041B" unicode="&#x41b;" horiz-adv-x="1161" 
d="M1030 0h-278v1202h-205q-9 -117 -21 -248.5t-25.5 -258t-27 -227.5t-24.5 -157q-27 -116 -63 -189t-94 -106.5t-151 -33.5q-43 0 -75.5 5.5t-55.5 14.5v238q19 -10 36 -14.5t36 -4.5q33 0 54.5 22t37 74.5t27.5 143.5q8 57 20 164.5t26 245.5t28 290.5t26 300.5h729
v-1462z" />
    <glyph glyph-name="uni041C" unicode="&#x41c;" horiz-adv-x="1581" 
d="M676 0l-289 1079h-8q5 -67 8 -126t4.5 -109t1.5 -90v-754h-262v1462h387l270 -1001h7l270 1001h385v-1462h-268v756q0 45 1.5 94.5t4 106t6.5 120.5h-8l-291 -1077h-219z" />
    <glyph glyph-name="uni041D" unicode="&#x41d;" horiz-adv-x="1186" 
d="M1055 0h-281v639h-362v-639h-281v1462h281v-579h362v579h281v-1462z" />
    <glyph glyph-name="uni041E" unicode="&#x41e;" horiz-adv-x="1214" 
d="M1126 733q0 -174 -32 -313.5t-96 -237.5t-161.5 -150t-228.5 -52q-132 0 -230 52.5t-162 151.5t-96 238t-32 313q0 246 59 413t175 252t286 85q177 0 291.5 -91t170.5 -259.5t56 -401.5zM379 733q0 -168 26 -280.5t77 -169t126 -56.5q76 0 126.5 55t76 167t25.5 284
q0 257 -57 382.5t-171 125.5q-75 0 -126 -57t-77 -170t-26 -281z" />
    <glyph glyph-name="uni041F" unicode="&#x41f;" horiz-adv-x="1165" 
d="M131 0v1462h903v-1462h-280v1219h-342v-1219h-281z" />
    <glyph glyph-name="uni0420" unicode="&#x420;" horiz-adv-x="1004" 
d="M502 1462q223 0 331.5 -115.5t108.5 -336.5q0 -111 -27.5 -201.5t-83.5 -155.5t-141 -100t-201 -35h-77v-518h-281v1462h371zM481 1223h-69v-465h49q67 0 112 25t68 80t23 145q0 112 -45.5 163.5t-137.5 51.5z" />
    <glyph glyph-name="uni0421" unicode="&#x421;" horiz-adv-x="989" 
d="M633 1241q-64 0 -112 -38t-79.5 -107.5t-47 -163.5t-15.5 -205q0 -163 31 -275.5t91 -170.5t146 -58q68 0 129 23t121 55v-250q-63 -35 -135.5 -53t-155.5 -18q-165 0 -280.5 87.5t-176.5 255t-61 406.5q0 164 34.5 301.5t101.5 239t164.5 157.5t223.5 56q88 0 170 -22
t158 -68l-80 -232q-54 37 -109 58.5t-118 21.5z" />
    <glyph glyph-name="uni0422" unicode="&#x422;" horiz-adv-x="879" 
d="M578 0h-277v1219h-272v243h819v-243h-270v-1219z" />
    <glyph glyph-name="uni0423" unicode="&#x423;" horiz-adv-x="987" 
d="M985 1462l-321 -1034q-46 -148 -101.5 -248t-137.5 -150t-210 -50q-46 0 -87 7.5t-79 20.5v244q32 -17 64.5 -25t64.5 -8q49 0 80 18.5t53 62.5t43 120l-352 1042h295l141 -481q13 -41 23.5 -82.5t20.5 -85.5t18 -92h12q7 47 14.5 85.5t16.5 76t20 80.5l129 499h293z" />
    <glyph glyph-name="uni0424" unicode="&#x424;" horiz-adv-x="1442" 
d="M858 1483v-180q166 0 278.5 -71t170 -194t57.5 -280q0 -124 -32.5 -226t-96.5 -175t-158.5 -112.5t-218.5 -39.5v-225h-272v225q-126 -1 -221 38t-158 112.5t-95 176t-32 228.5q0 112 29.5 210.5t90.5 173.5t157 117.5t229 41.5v180h272zM586 1069q-79 0 -130.5 -34.5
t-76.5 -102.5t-25 -170q0 -115 26 -186.5t77.5 -104.5t128.5 -33v631zM856 1069v-631q78 0 129.5 36t76.5 108t25 180q0 100 -25.5 168t-77 103.5t-128.5 35.5z" />
    <glyph glyph-name="uni0425" unicode="&#x425;" horiz-adv-x="969" 
d="M967 0h-301l-181 489l-190 -489h-293l324 743l-297 719h290l160 -461l158 461h295l-293 -717z" />
    <glyph glyph-name="uni0426" unicode="&#x426;" horiz-adv-x="1262" 
d="M1223 244v-676h-271v432h-821v1462h281v-1218h362v1218h281v-1218h168z" />
    <glyph glyph-name="uni0427" unicode="&#x427;" horiz-adv-x="1118" 
d="M987 0h-278v557q-86 -41 -164.5 -61.5t-147.5 -20.5q-141 0 -218 100.5t-77 284.5v602h281v-526q0 -115 29.5 -166t93.5 -51q46 0 95.5 15.5t107.5 49.5v678h278v-1462z" />
    <glyph glyph-name="uni0428" unicode="&#x428;" horiz-adv-x="1708" 
d="M1575 0h-1444v1462h281v-1218h301v1218h278v-1218h305v1218h279v-1462z" />
    <glyph glyph-name="uni0429" unicode="&#x429;" horiz-adv-x="1780" 
d="M1745 244v-676h-272v432h-1342v1462h281v-1218h301v1218h278v-1218h305v1218h279v-1218h170z" />
    <glyph glyph-name="uni042A" unicode="&#x42a;" horiz-adv-x="1180" 
d="M305 0v1217h-272v245h549v-555h51q157 0 265 -49t164 -147t56 -246q0 -223 -123.5 -344t-347.5 -121h-342zM582 240h51q101 0 153 54.5t52 162.5q0 72 -23 118.5t-68.5 69.5t-115.5 23h-49v-428z" />
    <glyph glyph-name="uni042B" unicode="&#x42b;" horiz-adv-x="1513" 
d="M131 0v1462h281v-555h47q158 0 266 -49t163.5 -147t55.5 -246q0 -224 -123.5 -344.5t-347.5 -120.5h-342zM412 240h51q100 0 151.5 54.5t51.5 162.5q0 72 -22.5 118.5t-67.5 69.5t-115 23h-49v-428zM1104 0v1462h280v-1462h-280z" />
    <glyph glyph-name="uni042C" unicode="&#x42c;" horiz-adv-x="1008" 
d="M131 0v1462h281v-555h47q158 0 266 -49t163.5 -147t55.5 -246q0 -224 -123.5 -344.5t-347.5 -120.5h-342zM412 240h51q100 0 151.5 54.5t51.5 162.5q0 72 -22.5 118.5t-67.5 69.5t-115 23h-49v-428z" />
    <glyph glyph-name="uni042D" unicode="&#x42d;" horiz-adv-x="1022" 
d="M375 1241q-69 0 -128 -21.5t-118 -58.5l-80 232q79 46 163.5 68t188.5 22q118 1 216 -47t169 -143t110 -236.5t38 -329.5q0 -229 -60 -397t-179 -259t-298 -91q-85 0 -166.5 17.5t-144.5 51.5v252q65 -32 135.5 -55t140.5 -23q66 0 116.5 28t85.5 81.5t55 129t24 169.5
h-412v241h408q-7 69 -24.5 134.5t-48.5 118.5t-78 84.5t-113 31.5z" />
    <glyph glyph-name="uni042E" unicode="&#x42e;" horiz-adv-x="1649" 
d="M1559 733q0 -174 -30 -313t-91 -237.5t-153.5 -150.5t-217.5 -52q-145 0 -251 75t-166.5 222t-71.5 362h-166v-639h-281v1462h281v-581h170q15 199 75.5 333t164.5 202.5t247 68.5q161 0 270 -85.5t164.5 -253t55.5 -413.5zM858 733q0 -168 23.5 -280.5t69.5 -169
t112 -56.5q70 0 115.5 55.5t68.5 167.5t23 283q0 172 -23 284.5t-68.5 168t-113.5 55.5t-114.5 -57t-69.5 -170t-23 -281z" />
    <glyph glyph-name="uni042F" unicode="&#x42f;" horiz-adv-x="1051" 
d="M553 573l-240 -573h-309l301 641q-70 39 -116.5 98t-69.5 133.5t-23 161.5q0 215 118 321.5t353 106.5h353v-1462h-281v573h-86zM639 1227h-64q-65 0 -107.5 -22.5t-62.5 -67.5t-20 -115q0 -117 45 -173t139 -56h70v434z" />
    <glyph glyph-name="uni0430" unicode="&#x430;" horiz-adv-x="950" 
d="M504 1141q163 0 248.5 -100.5t85.5 -299.5v-741h-195l-43 150h-6q-34 -57 -72.5 -95t-87.5 -56.5t-115 -18.5q-93 0 -150.5 50t-83.5 130t-26 170q0 175 97 265t276 97l139 6v45q0 92 -28.5 137.5t-93.5 45.5q-48 0 -105 -19t-125 -59l-74 199q76 46 167 70t192 24z
M571 520l-75 -4q-85 -4 -126.5 -47.5t-41.5 -126.5q0 -75 25.5 -112t74.5 -37q63 0 103 61t40 164v102z" />
    <glyph glyph-name="uni0431" unicode="&#x431;" horiz-adv-x="1004" 
d="M78 686q0 209 36 369t125.5 269t247.5 165q62 26 165 47t247 35l25 -240q-37 -4 -95.5 -11.5t-122.5 -18t-117.5 -23t-80.5 -27.5q-58 -30 -93 -80.5t-51.5 -123t-21.5 -168.5h14q20 48 55.5 84.5t82.5 57.5t100 21q107 0 182 -57t114.5 -166.5t39.5 -269.5
q0 -178 -50.5 -305.5t-146.5 -195.5t-233 -68q-98 0 -176 39t-133 123t-84 218.5t-29 325.5zM504 205q52 0 86.5 34.5t51.5 104.5t17 174q0 152 -35.5 229.5t-109.5 77.5q-35 0 -68.5 -25t-59 -62.5t-38.5 -75.5q1 -108 10.5 -192.5t29 -143.5t48.5 -90t68 -31z" />
    <glyph glyph-name="uni0432" unicode="&#x432;" horiz-adv-x="985" 
d="M889 836q0 -98 -46 -162t-132 -84v-8q94 -14 149 -83t55 -175q0 -105 -42.5 -177.5t-127 -109.5t-210.5 -37h-420v1120h415q119 0 199 -31.5t120 -94.5t40 -158zM645 352q0 71 -33.5 102t-99.5 31h-131v-282h129q68 0 101.5 36.5t33.5 112.5zM621 799q0 59 -29.5 89
t-91.5 30h-119v-240h125q60 0 87.5 32t27.5 89z" />
    <glyph glyph-name="uni0433" unicode="&#x433;" horiz-adv-x="741" 
d="M717 1120v-225h-336v-895h-266v1120h602z" />
    <glyph glyph-name="uni0434" unicode="&#x434;" horiz-adv-x="1090" 
d="M934 1120v-895h125v-628h-260v403h-518v-403h-261v628h95q48 118 84 263t58.5 305.5t29.5 326.5h647zM668 895h-154q-7 -112 -21 -219t-38.5 -217.5t-63.5 -233.5h277v670z" />
    <glyph glyph-name="uni0435" unicode="&#x435;" horiz-adv-x="936" 
d="M479 1139q126 0 213.5 -62t132.5 -175.5t45 -268.5v-150h-534q2 -147 54 -216.5t159 -69.5q71 0 134.5 18.5t135.5 63.5v-222q-67 -40 -143 -58.5t-164 -18.5q-154 0 -251 69.5t-142 198t-45 305.5q0 189 45.5 319.5t135.5 198.5t224 68zM485 930q-66 0 -105 -59.5
t-42 -194.5h285q0 79 -16 136t-47 87.5t-75 30.5z" />
    <glyph glyph-name="uni0436" unicode="&#x436;" horiz-adv-x="1444" 
d="M1417 1120l-301 -534l326 -586h-295l-295 573v-573h-262v573l-293 -573h-295l326 586l-301 534h286l277 -538v538h262v-538l278 538h287z" />
    <glyph glyph-name="uni0437" unicode="&#x437;" horiz-adv-x="831" 
d="M371 1141q106 0 184 -36.5t121 -103t43 -157.5q0 -89 -44.5 -156t-119.5 -92v-10q66 -13 112.5 -50t71.5 -93t25 -126q0 -99 -45.5 -175t-132.5 -119t-211 -43q-63 0 -117 7.5t-103 24.5t-98 45v234q63 -40 133 -63t142 -23q52 0 88 15t55 45t19 75q0 42 -18.5 73.5
t-60 48.5t-110.5 17h-90v201h76q86 0 127 31.5t41 103.5q0 53 -31 80t-90 27q-46 0 -94 -17t-99 -49l-90 201q86 47 161 65.5t155 18.5z" />
    <glyph glyph-name="uni0438" unicode="&#x438;" horiz-adv-x="1096" 
d="M371 1120v-444q0 -38 -1 -73.5t-2.5 -71.5t-4.5 -76t-7 -88l338 753h287v-1120h-254v451q0 49 2 98.5t5 100t7 102.5l-338 -752h-288v1120h256z" />
    <glyph glyph-name="uni0439" unicode="&#x439;" horiz-adv-x="1096" 
d="M371 1120v-444q0 -38 -1 -73.5t-2.5 -71.5t-4.5 -76t-7 -88l338 753h287v-1120h-254v451q0 49 2 98.5t5 100t7 102.5l-338 -752h-288v1120h256zM897 1579q-9 -114 -51 -191t-116 -116t-180 -39q-111 0 -185 38.5t-112.5 115.5t-46.5 192h211q3 -101 33.5 -149t99.5 -48
q65 0 97 48.5t37 148.5h213z" />
    <glyph glyph-name="uni043A" unicode="&#x43a;" horiz-adv-x="979" 
d="M666 1120h286l-307 -534l332 -586h-295l-301 573v-573h-266v1120h266v-538z" />
    <glyph glyph-name="uni043B" unicode="&#x43b;" horiz-adv-x="1024" 
d="M909 0h-266v885h-168q-15 -247 -37 -419t-58.5 -279t-94.5 -156t-146 -49q-35 0 -67 7t-60 17v225q11 -7 26 -11.5t32 -4.5q28 0 50 34t39 104t30 178t22.5 254.5t17.5 334.5h680v-1120z" />
    <glyph glyph-name="uni043C" unicode="&#x43c;" horiz-adv-x="1325" 
d="M1212 1120v-1120h-254v516q0 63 5 140.5t12 156.5h-8l-207 -813h-197l-207 813h-8q6 -78 10 -153.5t4 -143.5v-516h-247v1120h374l173 -698l176 698h374z" />
    <glyph glyph-name="uni043D" unicode="&#x43d;" horiz-adv-x="1032" 
d="M381 1120v-430h268v430h266v-1120h-266v463h-268v-463h-266v1120h266z" />
    <glyph glyph-name="uni043E" unicode="&#x43e;" horiz-adv-x="999" 
d="M926 563q0 -117 -23.5 -222t-74 -186t-132 -128t-198.5 -47q-109 0 -189 46t-132 126.5t-77.5 186t-25.5 224.5q0 169 44.5 299.5t139 204.5t244.5 74q129 0 224.5 -67t147.5 -195.5t52 -315.5zM344 559q0 -116 16.5 -195t51 -119t88.5 -40q55 0 88.5 39.5t49 119.5
t15.5 199q0 118 -15.5 196t-49 117t-88.5 39q-82 0 -119 -87t-37 -269z" />
    <glyph glyph-name="uni043F" unicode="&#x43f;" horiz-adv-x="1032" 
d="M915 1120v-1120h-266v895h-268v-895h-266v1120h800z" />
    <glyph glyph-name="uni0440" unicode="&#x440;" horiz-adv-x="1024" 
d="M621 1141q158 0 243.5 -152t85.5 -432q0 -180 -38.5 -309t-110.5 -198.5t-172 -69.5q-51 0 -96.5 18t-83 55t-66.5 94h-10q5 -64 6.5 -111.5t1.5 -78.5v-449h-266v1612h215l39 -147h14q34 66 69.5 102.5t77 51t91.5 14.5zM537 915q-54 0 -88.5 -34t-51 -106t-16.5 -187
v-56q0 -111 16.5 -182t51.5 -105t88 -34q48 0 80 38t47.5 114.5t15.5 191.5q0 182 -34.5 271t-108.5 89z" />
    <glyph glyph-name="uni0441" unicode="&#x441;" horiz-adv-x="817" 
d="M494 -20q-140 0 -233.5 62.5t-140 190t-46.5 322.5q0 170 45 302.5t139 208t240 75.5q83 0 149.5 -18.5t124.5 -55.5l-74 -213q-46 28 -90.5 41.5t-89.5 13.5q-55 0 -94 -40.5t-59.5 -119t-20.5 -194.5q0 -115 20.5 -192t60 -115.5t97.5 -38.5q57 0 115 21t113 61v-228
q-54 -43 -120.5 -63t-135.5 -20z" />
    <glyph glyph-name="uni0442" unicode="&#x442;" horiz-adv-x="813" 
d="M786 895h-245v-895h-267v895h-247v225h759v-225z" />
    <glyph glyph-name="uni0443" unicode="&#x443;" horiz-adv-x="909" 
d="M6 1120h279l131 -542q9 -37 17 -74.5t13.5 -72.5t8.5 -66h8q5 41 15 92.5t26 117.5l123 545h276l-334 -1229q-37 -138 -87.5 -222t-118.5 -122.5t-160 -38.5q-34 0 -65 5t-62 12v235q20 -6 40.5 -10t39.5 -4q41 0 66.5 16t45.5 59t43 124l17 67z" />
    <glyph glyph-name="uni0444" unicode="&#x444;" horiz-adv-x="1333" 
d="M799 1556v-432q151 -12 253.5 -87.5t155 -198.5t52.5 -279q0 -163 -52.5 -284.5t-155 -193.5t-253.5 -87v-486h-258v486q-146 12 -251 85t-160.5 196t-55.5 284q0 166 51 288t153.5 193t258.5 84v432h262zM537 901q-56 -5 -100 -49t-68.5 -119t-24.5 -174
q0 -94 22.5 -169.5t66 -121t104.5 -49.5v682zM799 901v-682q62 4 104.5 50.5t65 122t22.5 167.5q0 149 -53 241t-139 101z" />
    <glyph glyph-name="uni0445" unicode="&#x445;" horiz-adv-x="891" 
d="M276 573l-249 547h288l131 -336l129 336h287l-248 -551l260 -569h-288l-146 360l-141 -360h-283z" />
    <glyph glyph-name="uni0446" unicode="&#x446;" horiz-adv-x="1094" 
d="M1065 -403h-260v403h-690v1120h266v-895h285v895h264v-895h135v-628z" />
    <glyph glyph-name="uni0447" unicode="&#x447;" horiz-adv-x="1020" 
d="M352 1120v-420q0 -69 24 -102t68 -33q45 0 94.5 20t100.5 54v481h266v-1120h-266v434q-69 -46 -136 -70t-130 -24q-146 0 -216.5 88.5t-70.5 269.5v422h266z" />
    <glyph glyph-name="uni0448" unicode="&#x448;" horiz-adv-x="1511" 
d="M1397 1120v-1120h-1282v1120h266v-895h242v895h266v-895h239v895h269z" />
    <glyph glyph-name="uni0449" unicode="&#x449;" horiz-adv-x="1561" 
d="M1397 1120v-895h133v-628h-260v403h-1155v1120h266v-895h242v895h266v-895h239v895h269z" />
    <glyph glyph-name="uni044A" unicode="&#x44a;" horiz-adv-x="1071" 
d="M528 1120v-426h70q138 0 230.5 -35.5t139 -110.5t46.5 -192q0 -120 -46 -199t-132.5 -118t-210.5 -39h-363v885h-235v235h501zM604 492h-76v-289h78q69 0 105.5 36t36.5 105q0 72 -34 110t-110 38z" />
    <glyph glyph-name="uni044B" unicode="&#x44b;" horiz-adv-x="1374" 
d="M115 0v1120h266v-426h70q138 0 231 -35.5t139.5 -110.5t46.5 -192q0 -120 -46 -199t-134 -118t-213 -39h-360zM381 203h78q68 0 104.5 36t36.5 105q0 72 -34 110t-109 38h-76v-289zM991 0v1120h266v-1120h-266z" />
    <glyph glyph-name="uni044C" unicode="&#x44c;" horiz-adv-x="924" 
d="M381 694h70q138 0 231 -35.5t139.5 -110.5t46.5 -192q0 -120 -46 -199t-134 -118t-213 -39h-360v1120h266v-426zM600 344q0 72 -34 110t-109 38h-76v-289h78q68 0 104.5 36t36.5 105z" />
    <glyph glyph-name="uni044D" unicode="&#x44d;" horiz-adv-x="848" 
d="M336 -20q-77 0 -144.5 21t-119.5 62v222q59 -40 117.5 -61t121.5 -21q54 0 92.5 28.5t62.5 86t32 145.5h-289v203h287q-13 128 -57 192t-120 64q-49 0 -99 -16t-93 -44l-74 205q63 37 130.5 55.5t140.5 18.5q143 0 243.5 -68.5t153.5 -198.5t53 -317q0 -186 -49.5 -315
t-147 -195.5t-241.5 -66.5z" />
    <glyph glyph-name="uni044E" unicode="&#x44e;" horiz-adv-x="1413" 
d="M1339 563q0 -185 -48 -315.5t-140 -199t-223 -68.5q-116 0 -200.5 48.5t-135 155t-66.5 279.5h-145v-463h-266v1120h266v-430h145q17 146 69.5 246.5t138.5 152.5t200 52q123 0 214 -69.5t141 -198.5t50 -310zM788 559q0 -116 15 -195t46.5 -119t80.5 -40t79.5 39.5
t45 119.5t14.5 199q0 118 -14.5 196t-45.5 117t-81 39q-49 0 -80 -38.5t-45.5 -117.5t-14.5 -200z" />
    <glyph glyph-name="uni044F" unicode="&#x44f;" horiz-adv-x="940" 
d="M291 0h-285l244 453q-58 22 -98 67t-60 109.5t-20 144.5q0 166 97.5 256t270.5 90h385v-1120h-266v416h-74zM340 764q0 -67 37.5 -106.5t107.5 -39.5h74v300h-74q-70 0 -107.5 -41t-37.5 -113z" />
    <glyph glyph-name="uni0450" unicode="&#x450;" horiz-adv-x="936" 
d="M479 1139q126 0 213.5 -62t132.5 -175.5t45 -268.5v-150h-534q2 -147 54 -216.5t159 -69.5q71 0 134.5 18.5t135.5 63.5v-222q-67 -40 -143 -58.5t-164 -18.5q-154 0 -251 69.5t-142 198t-45 305.5q0 189 45.5 319.5t135.5 198.5t224 68zM485 930q-66 0 -105 -59.5
t-42 -194.5h285q0 79 -16 136t-47 87.5t-75 30.5zM467 1569q19 -43 50 -101.5t63.5 -113t54.5 -86.5v-27h-190q-27 24 -66.5 64t-82 86t-78.5 88.5t-56 70.5v19h305z" />
    <glyph glyph-name="uni0451" unicode="&#x451;" horiz-adv-x="936" 
d="M479 1139q126 0 213.5 -62t132.5 -175.5t45 -268.5v-150h-534q2 -147 54 -216.5t159 -69.5q71 0 134.5 18.5t135.5 63.5v-222q-67 -40 -143 -58.5t-164 -18.5q-154 0 -251 69.5t-142 198t-45 305.5q0 189 45.5 319.5t135.5 198.5t224 68zM485 930q-66 0 -105 -59.5
t-42 -194.5h285q0 79 -16 136t-47 87.5t-75 30.5zM168 1395q0 68 34 102.5t89 34.5q57 0 91 -36t34 -101q0 -63 -34 -99t-91 -36q-55 0 -89 34.5t-34 100.5zM539 1395q0 68 34 102.5t91 34.5t91 -36t34 -101q0 -63 -34 -99t-91 -36t-91 35.5t-34 99.5z" />
    <glyph glyph-name="uni0452" unicode="&#x452;" horiz-adv-x="1026" 
d="M616 -492q-31 0 -75.5 7t-67.5 16v229q22 -9 43 -13.5t41 -4.5q44 0 66 37.5t22 114.5v735q0 123 -26 181t-82 58q-54 0 -88.5 -34.5t-51 -114.5t-16.5 -215v-504h-268v1202h-117v191h117v163h268v-163h203v-191h-203v-72q0 -37 -5 -83.5t-16 -102.5h15q23 54 58 90
t81 54t102 18q98 0 164 -46.5t99.5 -135.5t33.5 -217v-828q0 -117 -34.5 -200t-100.5 -127t-162 -44z" />
    <glyph glyph-name="uni0453" unicode="&#x453;" horiz-adv-x="741" 
d="M717 1120v-225h-336v-895h-266v1120h602zM766 1569v-19q-21 -29 -54 -68t-72.5 -82t-80 -84.5t-76.5 -74.5h-190v27q36 54 66 105.5t55.5 100.5t46.5 95h305z" />
    <glyph glyph-name="uni0454" unicode="&#x454;" horiz-adv-x="848" 
d="M508 -20q-143 0 -240 66t-145.5 194.5t-48.5 314.5q0 179 49.5 310.5t150 203.5t252.5 72q71 0 139.5 -18.5t129.5 -55.5l-72 -205q-44 28 -93.5 44t-103.5 16q-49 0 -85 -28.5t-58.5 -85.5t-32.5 -142h289v-203h-289q8 -87 30.5 -144.5t61.5 -86.5t93 -29q61 0 120.5 21
t116.5 61v-222q-52 -41 -122.5 -62t-141.5 -21z" />
    <glyph glyph-name="uni0455" unicode="&#x455;" horiz-adv-x="766" 
d="M711 328q0 -114 -42.5 -191.5t-123 -117t-193.5 -39.5q-81 0 -154.5 15.5t-138.5 47.5v258q54 -37 125 -63.5t144 -26.5q56 0 86 26t30 76q0 28 -12 52.5t-48 52t-108 63.5q-69 38 -118 87t-75 112t-26 143q0 148 92 233t252 85q82 0 154.5 -22.5t142.5 -65.5l-73 -205
q-48 32 -101 54t-108 22q-49 0 -75 -23.5t-26 -64.5q0 -29 12 -50t47.5 -46.5t104.5 -67.5q69 -40 121 -87t81.5 -109t29.5 -148z" />
    <glyph glyph-name="uni0456" unicode="&#x456;" horiz-adv-x="500" 
d="M383 1120v-1120h-266v1120h266zM250 1561q75 0 110 -39.5t35 -114.5q0 -73 -36.5 -111.5t-108.5 -38.5q-70 0 -108 38.5t-38 111.5q0 77 35.5 115.5t110.5 38.5z" />
    <glyph glyph-name="uni0457" unicode="&#x457;" horiz-adv-x="500" 
d="M383 0h-266v1120h266v-1120zM-62 1395q0 68 34 102.5t89 34.5q57 0 91 -36t34 -101q0 -63 -34 -99t-91 -36q-55 0 -89 34.5t-34 100.5zM309 1395q0 68 34 102.5t91 34.5t91 -36t34 -101q0 -63 -34 -99t-91 -36t-91 35.5t-34 99.5z" />
    <glyph glyph-name="uni0458" unicode="&#x458;" horiz-adv-x="500" 
d="M86 -492q-37 0 -73 5.5t-70 17.5v229q21 -9 42.5 -13.5t41.5 -4.5q46 0 68 37.5t22 114.5v1226h266v-1241q0 -127 -35 -208.5t-101.5 -121t-160.5 -41.5zM104 1407q0 77 35.5 115.5t110.5 38.5t110 -39.5t35 -114.5q0 -73 -36.5 -111.5t-108.5 -38.5q-70 0 -108 38.5
t-38 111.5z" />
    <glyph glyph-name="uni0459" unicode="&#x459;" horiz-adv-x="1427" 
d="M887 1120v-426h69q138 0 230.5 -35.5t139 -110.5t46.5 -192q0 -120 -46 -199t-133.5 -118t-211.5 -39h-354v885h-152q-15 -247 -36.5 -419t-57.5 -279t-94.5 -156t-147.5 -49q-35 0 -67 7t-60 17v225q11 -7 26 -11.5t32 -4.5q28 0 50 33t39 102t30 176t22.5 255t17.5 339
h658zM963 492h-76v-289h76q69 0 105 36t36 105q0 72 -33.5 110t-107.5 38z" />
    <glyph glyph-name="uni045A" unicode="&#x45a;" horiz-adv-x="1444" 
d="M905 1120v-426h68q138 0 231 -35.5t140 -110.5t47 -192q0 -120 -46.5 -199t-134 -118t-211.5 -39h-356v469h-262v-469h-266v1120h266v-426h262v426h262zM979 492h-74v-289h76q69 0 105 36t36 105q0 72 -34 110t-109 38z" />
    <glyph glyph-name="uni045B" unicode="&#x45b;" horiz-adv-x="1026" 
d="M381 1556v-163h203v-191h-203v-72q0 -37 -5 -83.5t-16 -102.5h15q23 54 58 90t81 54t102 18q98 0 164 -46.5t99.5 -135.5t33.5 -217v-707h-268v629q0 123 -26 181t-82 58q-57 0 -91.5 -34.5t-49.5 -114.5t-15 -215v-504h-268v1202h-117v191h117v163h268z" />
    <glyph glyph-name="uni045C" unicode="&#x45c;" horiz-adv-x="979" 
d="M666 1120h286l-307 -534l332 -586h-295l-301 573v-573h-266v1120h266v-538zM866 1569v-19q-21 -29 -54 -68t-72.5 -82t-80 -84.5t-76.5 -74.5h-190v27q36 54 66 105.5t55.5 100.5t46.5 95h305z" />
    <glyph glyph-name="uni045D" unicode="&#x45d;" horiz-adv-x="1096" 
d="M371 1120v-444q0 -38 -1 -73.5t-2.5 -71.5t-4.5 -76t-7 -88l338 753h287v-1120h-254v451q0 49 2 98.5t5 100t7 102.5l-338 -752h-288v1120h256zM481 1569q19 -43 50 -101.5t63.5 -113t54.5 -86.5v-27h-190q-27 24 -66.5 64t-82 86t-78.5 88.5t-56 70.5v19h305z" />
    <glyph glyph-name="uni045E" unicode="&#x45e;" horiz-adv-x="909" 
d="M6 1120h279l131 -542q9 -37 17 -74.5t13.5 -72.5t8.5 -66h8q5 41 15 92.5t26 117.5l123 545h276l-334 -1229q-37 -138 -87.5 -222t-118.5 -122.5t-160 -38.5q-34 0 -65 5t-62 12v235q20 -6 40.5 -10t39.5 -4q41 0 66.5 16t45.5 59t43 124l17 67zM803 1579
q-9 -114 -51 -191t-116 -116t-180 -39q-111 0 -185 38.5t-112.5 115.5t-46.5 192h211q3 -101 33.5 -149t99.5 -48q65 0 97 48.5t37 148.5h213z" />
    <glyph glyph-name="uni045F" unicode="&#x45f;" horiz-adv-x="1032" 
d="M387 0h-272v1120h266v-895h268v895h266v-1120h-270v-403h-258v403z" />
    <glyph glyph-name="uni0460" unicode="&#x460;" horiz-adv-x="1645" 
d="M348 0q-75 180 -133.5 363.5t-99.5 367.5t-64 367.5t-28 363.5h290q0 -133 12.5 -277t36 -288.5t56.5 -283t74 -261.5h6q12 71 33 146.5t42 144.5l103 354q-11 79 -19.5 155t-13 152.5t-4.5 157.5h283q1 -136 11.5 -275.5t33 -280.5t59 -280t88.5 -274h6
q68 166 114.5 354t72 381t30.5 375h285q-15 -226 -60.5 -472t-126 -497t-202.5 -493h-229q-32 72 -63 148t-59.5 152.5t-53 150.5t-44.5 143l-166 -594h-270z" />
    <glyph glyph-name="uni0461" unicode="&#x461;" horiz-adv-x="1452" 
d="M1397 1120q-7 -192 -48.5 -392.5t-104 -387.5t-134.5 -340h-238q-28 66 -61 153t-61 176.5t-43 159.5l-162 -489h-242q-64 138 -111 278t-79 281.5t-50.5 282t-25.5 278.5h258q5 -129 23.5 -276.5t49 -289.5t72.5 -257h6q10 29 22 67.5t24 76t22 61.5l102 278
q-13 92 -20.5 181.5t-9.5 158.5h252q5 -133 24 -281.5t50.5 -290.5t74.5 -257h6q41 102 73.5 240t52 291t20.5 298h258z" />
    <glyph glyph-name="uni0462" unicode="&#x462;" horiz-adv-x="1026" 
d="M147 0v1137h-145v206h145v213h281v-213h266v-206h-266v-244h47q158 0 266.5 -47t164 -143.5t55.5 -245.5q0 -214 -124 -335.5t-348 -121.5h-342zM428 240h51q100 0 151.5 53t51.5 158q0 69 -21 114t-66 67.5t-118 22.5h-49v-415z" />
    <glyph glyph-name="uni0463" unicode="&#x463;" horiz-adv-x="1004" 
d="M463 1343v-223h215v-192h-215v-234h72q206 0 309.5 -81t103.5 -257q0 -120 -45.5 -199t-132.5 -118t-211 -39h-362v928h-179v192h179v223h266zM539 492h-76v-289h76q69 0 105 36t36 105q0 72 -33 110t-108 38z" />
    <glyph glyph-name="uni0464" unicode="&#x464;" horiz-adv-x="1483" 
d="M1081 -20q-159 0 -269.5 80.5t-171.5 227t-75 343.5h-153v-631h-281v1462h281v-590h159q15 144 56 257.5t107 192.5t157 120t207 41q91 0 174 -23.5t162 -70.5l-78 -232q-61 40 -122 62t-130 22q-55 0 -99 -27.5t-75.5 -77t-52 -117t-29.5 -147.5h403v-241h-407
q5 -91 24.5 -166t53.5 -129.5t83 -83.5t113 -29q71 0 137.5 23.5t133.5 60.5v-252q-68 -38 -145 -56.5t-163 -18.5z" />
    <glyph glyph-name="uni0465" unicode="&#x465;" horiz-adv-x="1284" 
d="M948 -20q-139 0 -228 55.5t-135.5 163.5t-60.5 264h-143v-463h-266v1120h266v-454h145q15 141 66 248t143.5 167t229.5 60q72 0 139.5 -18.5t130.5 -55.5l-74 -205q-44 28 -94 44t-100 16q-51 0 -88 -28.5t-59.5 -85.5t-31.5 -142h287v-203h-287q8 -87 30.5 -144.5
t61.5 -86.5t93 -29q60 0 120.5 21t118.5 61v-222q-53 -43 -123 -63t-141 -20z" />
    <glyph glyph-name="uni0466" unicode="&#x466;" horiz-adv-x="1292" 
d="M834 1462l466 -1462h-299l-174 600h-49v-600h-262v600h-51l-172 -600h-299l465 1462h375zM645 1251q-3 -18 -6.5 -34.5t-7 -32.5t-7.5 -30.5t-8 -27.5l-88 -301h234l-88 305q-4 13 -7.5 27.5t-7.5 29.5t-7.5 31t-6.5 33z" />
    <glyph glyph-name="uni0467" unicode="&#x467;" horiz-adv-x="1079" 
d="M709 1120l372 -1120h-266l-117 414h-41v-414h-233v414h-39l-119 -414h-266l375 1120h334zM547 944h-8q-4 -23 -8.5 -43t-9 -37t-9.5 -35l-59 -204h178l-58 204q-5 19 -9.5 36.5t-8.5 37t-8 41.5z" />
    <glyph glyph-name="uni0468" unicode="&#x468;" horiz-adv-x="1784" 
d="M1325 1462l465 -1462h-297l-174 600h-51v-600h-260v600h-54l-172 -600h-295l201 639h-276v-639h-281v1462h281v-581h356l184 581h373zM1137 1251q-3 -18 -6.5 -34.5t-7.5 -32.5t-7.5 -30.5t-7.5 -27.5l-88 -301h233l-88 305q-4 13 -7.5 27.5t-7 29.5t-7 31t-6.5 33z" />
    <glyph glyph-name="uni0469" unicode="&#x469;" horiz-adv-x="1524" 
d="M1155 1120l371 -1120h-266l-119 414h-39v-414h-234v414h-39l-120 -414h-258l155 469h-225v-469h-266v1120h266v-426h301l141 426h332zM991 944h-8q-5 -28 -10.5 -53.5t-12 -49t-14.5 -48.5l-49 -168h178l-49 170q-5 18 -12 44t-13.5 54t-9.5 51z" />
    <glyph glyph-name="uni046A" unicode="&#x46a;" horiz-adv-x="1335" 
d="M1192 1462v-149l-270 -463q78 -19 128.5 -63.5t86.5 -124.5t69 -207l123 -455h-299l-86 379q-22 100 -41 154.5t-42.5 78t-61.5 29.5v-641h-262v641q-38 -5 -60.5 -25.5t-40.5 -75t-43 -161.5l-88 -379h-299l125 455q26 95 50 163.5t53.5 114.5t72 74t103.5 43l-263 463
v149h1045zM848 1237h-365l181 -360z" />
    <glyph glyph-name="uni046B" unicode="&#x46b;" horiz-adv-x="1151" 
d="M1026 1120v-129l-229 -348q71 -15 118.5 -53t79.5 -99t54 -145l90 -346h-262l-78 356q-10 41 -23.5 66t-33 36t-48.5 11v-469h-235v467q-31 0 -50 -11t-31 -35.5t-22 -64.5l-82 -356h-262l86 346q23 85 55.5 147.5t80.5 101t116 50.5l-229 346v129h905zM727 928h-309
l153 -254z" />
    <glyph glyph-name="uni046C" unicode="&#x46c;" horiz-adv-x="1827" 
d="M1683 1462v-149l-270 -471q80 -18 130.5 -64t86 -127t70.5 -205l123 -446h-299l-88 373q-22 99 -41.5 154t-43.5 78.5t-61 29.5v-635h-262v635q-35 -5 -57 -24.5t-40.5 -73.5t-45.5 -164l-88 -373h-291l110 401q19 68 41.5 127.5t53.5 110.5h-299v-639h-281v1462h281
v-581h469l-242 432v149h1044zM1343 1237h-366l180 -367z" />
    <glyph glyph-name="uni046D" unicode="&#x46d;" horiz-adv-x="1612" 
d="M1487 1120v-129l-230 -352q71 -16 118.5 -53.5t79 -98t54.5 -145.5l93 -342h-265l-80 352q-10 41 -23 65.5t-32 35t-49 10.5v-463h-233v461q-31 0 -50 -11t-30.5 -34.5t-22.5 -61.5l-82 -354h-256l92 356q10 35 21 63t24 50h-235v-469h-266v1120h266v-426h395l-194 297
v129h905zM1188 928h-309l153 -256z" />
    <glyph glyph-name="uni046E" unicode="&#x46e;" horiz-adv-x="979" 
d="M698 1776q26 0 49.5 -3.5t43.5 -11.5v-159q-11 6 -24 9t-30 3q-37 0 -69.5 -39t-67.5 -109q123 -34 190.5 -124.5t67.5 -219.5q0 -142 -65.5 -232.5t-194.5 -119.5v-8q148 -17 223.5 -107.5t75.5 -240.5q0 -102 -33 -181t-90 -134t-132 -83.5t-159 -29.5q-59 -1 -98 -12
t-58.5 -33t-19.5 -56q0 -52 32.5 -73t90.5 -21q44 0 80.5 3t67.5 6t57 3q44 0 76.5 -9.5t46.5 -24.5v-224q-16 14 -48 21.5t-81 7.5q-47 0 -86 -2.5t-79 -5t-91 -2.5q-114 0 -190 40.5t-114 113.5t-38 171q0 118 42.5 193t121.5 110.5t186 36.5q113 2 171 49t58 156
q0 106 -66.5 156.5t-203.5 50.5h-119v240h111q88 2 141.5 20.5t78.5 60t26 113.5q0 83 -44.5 123.5t-130.5 40.5q-70 0 -129.5 -25.5t-105.5 -72.5l-111 205q62 52 125 82.5t135 44.5q-18 34 -46.5 80.5t-61.5 95t-64 86.5v24h170q32 -29 67 -71.5t77 -96.5q30 56 65.5 97.5
t78.5 64.5t95 23z" />
    <glyph glyph-name="uni046F" unicode="&#x46f;" horiz-adv-x="844" 
d="M616 1366q25 0 49 -3t44 -9v-154q-11 8 -25 10t-31 2q-32 0 -61.5 -24.5t-56.5 -75.5q97 -34 146.5 -103.5t49.5 -166.5q0 -89 -43.5 -155t-122.5 -91v-10q68 -15 115 -52.5t71.5 -92t24.5 -122.5q0 -100 -40.5 -174t-123 -115.5t-209.5 -43.5q-49 -1 -78.5 -12t-43 -32
t-13.5 -53q0 -49 28 -67.5t77 -18.5q35 0 66 3t61 5.5t61 2.5q37 0 65 -9t48 -26v-228q-14 16 -45 25.5t-68 9.5q-29 0 -69.5 -2.5t-80.5 -5t-71 -2.5q-105 0 -177.5 36.5t-110.5 106.5t-38 172q0 100 38.5 170.5t111 109t174.5 40.5q58 1 95 16.5t55 44.5t18 72
q0 42 -19 72.5t-60.5 46.5t-107.5 16h-92v201h76q85 0 126.5 31.5t41.5 103.5q0 53 -32 80t-97 27q-49 0 -99.5 -17t-101.5 -49l-90 203q40 20 77.5 36t74.5 23q-20 36 -42.5 71.5t-47 70.5t-50.5 67v25h170q31 -31 67.5 -73t76.5 -95q30 56 65 97t78 63t96 22z" />
    <glyph glyph-name="uni0470" unicode="&#x470;" horiz-adv-x="1475" 
d="M1366 1462v-487q0 -142 -28 -248t-87.5 -176t-153 -104.5t-223.5 -34.5v-412h-270v412q-132 0 -225.5 33t-152 100t-86 169.5t-27.5 241.5v506h280v-514q0 -98 18 -163t63.5 -97.5t129.5 -32.5v807h270v-807q75 0 121.5 29.5t68 93.5t21.5 166v518h281z" />
    <glyph glyph-name="uni0471" unicode="&#x471;" horiz-adv-x="1368" 
d="M815 1554v-1337q71 10 113 49t61 116.5t19 201.5q0 128 -17 261.5t-51 274.5h260q41 -161 58.5 -287.5t17.5 -254.5q0 -185 -52 -315t-154.5 -201t-254.5 -80v-474h-260v474q-147 6 -246.5 62.5t-149.5 172t-50 297.5v606h266v-592q0 -101 17.5 -167.5t57 -101.5
t105.5 -42v1337h260z" />
    <glyph glyph-name="uni0472" unicode="&#x472;" horiz-adv-x="1245" 
d="M1155 733q0 -174 -32.5 -313.5t-98.5 -237.5t-166 -150t-235 -52t-235.5 52.5t-167 151.5t-99.5 238t-33 313q0 246 61 413t180.5 252t293.5 85q181 0 299 -91t175.5 -259.5t57.5 -401.5zM623 223q74 0 126.5 45.5t82.5 136t36 226.5h-493q6 -134 36.5 -225t83.5 -137
t128 -46zM625 1243q-73 0 -125.5 -42.5t-83.5 -128.5t-39 -216h491q-12 194 -73 290.5t-170 96.5z" />
    <glyph glyph-name="uni0473" unicode="&#x473;" horiz-adv-x="1038" 
d="M965 563q0 -184 -53 -314.5t-153 -199.5t-243 -69q-136 0 -235 70.5t-153 201t-54 311.5q0 277 117.5 427.5t330.5 150.5q140 0 239 -74t151.5 -204.5t52.5 -299.5zM518 205q54 0 90.5 30t57.5 89t28 147h-352q5 -72 24 -132.5t56 -97t96 -36.5zM518 915
q-78 0 -121 -64.5t-55 -193.5h354q-5 69 -24 127.5t-56 94.5t-98 36z" />
    <glyph glyph-name="uni0474" unicode="&#x474;" horiz-adv-x="1122" 
d="M1067 1233q-27 0 -48 -17.5t-37.5 -57t-33.5 -107.5l-262 -1051h-324l-362 1462h293l176 -805q13 -52 24.5 -116t20 -128t12.5 -116q5 36 12 85t15 99.5t15 92.5t12 63l106 491q29 125 68 201.5t95 111t136 34.5q43 0 77.5 -7.5t63.5 -21.5v-227q-15 6 -30 10t-29 4z" />
    <glyph glyph-name="uni0475" unicode="&#x475;" horiz-adv-x="961" 
d="M821 1139q50 0 83 -8t54 -19v-211q-15 6 -28.5 10t-26.5 4q-23 -1 -39 -13t-28 -41t-25 -81l-213 -780h-289l-303 1120h277l127 -592q14 -58 23 -117t16 -124h8q3 52 13 113t26 128l61 275q30 132 65 205t83 102t116 29z" />
    <glyph glyph-name="uni0476" unicode="&#x476;" horiz-adv-x="1122" 
d="M1067 1233q-27 0 -48 -17.5t-37.5 -57t-33.5 -107.5l-262 -1051h-324l-362 1462h293l176 -805q13 -52 24.5 -116t20 -128t12.5 -116q5 36 12 85t15 99.5t15 92.5t12 63l106 491q29 125 68 201.5t95 111t136 34.5q43 0 77.5 -7.5t63.5 -21.5v-227q-15 6 -30 10t-29 4z
M661 1907q13 -30 35.5 -77t52.5 -104.5t64 -119.5v-27h-127q-40 32 -82 72.5t-80 83.5t-67 83t-43 70v19h247zM326 1907q16 -37 38.5 -83t50.5 -100.5t60 -117.5v-27h-135q-31 29 -71 69.5t-79 85t-69.5 85t-44.5 69.5v19h250z" />
    <glyph glyph-name="uni0477" unicode="&#x477;" horiz-adv-x="961" 
d="M821 1139q50 0 83 -8t54 -19v-211q-15 6 -28.5 10t-26.5 4q-23 -1 -39 -13t-28 -41t-25 -81l-213 -780h-289l-303 1120h277l127 -592q14 -58 23 -117t16 -124h8q3 52 13 113t26 128l61 275q30 132 65 205t83 102t116 29zM595 1569q13 -30 35.5 -77t52.5 -104.5t64 -119.5
v-27h-127q-40 32 -82 72.5t-80 83.5t-67 83t-43 70v19h247zM260 1569q16 -37 38.5 -83t50.5 -100.5t60 -117.5v-27h-135q-31 29 -71 69.5t-79 85t-69.5 85t-44.5 69.5v19h250z" />
    <glyph glyph-name="uni0478" unicode="&#x478;" horiz-adv-x="2124" 
d="M1126 733q0 -174 -32 -313.5t-96 -237.5t-161.5 -150t-228.5 -52q-132 0 -230 52.5t-162 151.5t-96 238t-32 313q0 246 59 413t175 252t286 85q177 0 291.5 -91t170.5 -259.5t56 -401.5zM379 733q0 -168 26 -280.5t77 -169t126 -56.5q76 0 126.5 55t76 167t25.5 284
q0 171 -25.5 284t-76 168.5t-126.5 55.5q-75 0 -126 -57t-77 -170t-26 -281zM1221 1120h278l131 -542q9 -37 16.5 -74.5t13.5 -72.5t9 -66h8q5 41 15 92.5t26 117.5l123 545h277l-334 -1229q-39 -138 -89 -222t-117.5 -122.5t-160.5 -38.5q-34 0 -65 5t-62 12v235
q20 -6 41 -10t39 -4q41 0 67 16t46 59t43 124l16 67z" />
    <glyph glyph-name="uni0479" unicode="&#x479;" horiz-adv-x="1909" 
d="M926 563q0 -117 -23.5 -222t-74 -186t-132 -128t-198.5 -47q-109 0 -189 46t-132 126.5t-77.5 186t-25.5 224.5q0 169 44.5 299.5t139 204.5t244.5 74q129 0 224.5 -67t147.5 -195.5t52 -315.5zM344 559q0 -116 16.5 -195t51 -119t88.5 -40q55 0 88.5 39.5t49 119.5
t15.5 199q0 118 -15.5 196t-49 117t-88.5 39q-82 0 -119 -87t-37 -269zM1005 1120h279l131 -542q9 -37 17 -74.5t13.5 -72.5t8.5 -66h8q5 41 15 92.5t26 117.5l123 545h276l-334 -1229q-37 -138 -87.5 -222t-118.5 -122.5t-160 -38.5q-34 0 -65 5t-62 12v235q20 -6 40.5 -10
t39.5 -4q41 0 66.5 16t45.5 59t43 124l17 67z" />
    <glyph glyph-name="uni047A" unicode="&#x47a;" horiz-adv-x="1274" 
d="M639 -133q-48 0 -86 29.5t-53 99.5q-100 21 -177 79.5t-129 152.5t-79 221t-27 286q0 212 46.5 366t138.5 247t227 120q12 70 49.5 98.5t89.5 28.5q46 0 83 -28.5t50 -98.5q135 -27 227 -120t138.5 -247.5t46.5 -367.5q0 -158 -26.5 -285t-79 -220.5t-130 -152.5
t-178.5 -81q-13 -69 -49 -98t-82 -29zM512 264q20 60 53 83.5t74 23.5q38 0 73 -25.5t52 -85.5q45 31 75.5 96t46 160t15.5 217q0 182 -34.5 303.5t-102.5 167.5q-14 -60 -49 -86t-76 -26t-78 25t-51 83q-45 -32 -75.5 -97.5t-46 -159t-15.5 -210.5t15.5 -211.5t46.5 -160
t77 -97.5z" />
    <glyph glyph-name="uni047B" unicode="&#x47b;" horiz-adv-x="1073" 
d="M1001 563q0 -158 -41 -277.5t-119 -193.5t-190 -98q-13 -61 -41.5 -89t-68.5 -28q-42 0 -74.5 28t-44.5 89q-110 24 -188 99.5t-119 195.5t-41 274q0 237 90.5 383.5t257.5 181.5q12 60 44.5 84.5t74.5 24.5q37 0 68.5 -25.5t43.5 -85.5q111 -24 188.5 -100.5
t118.5 -194.5t41 -268zM741 563q0 83 -10 142t-30.5 99.5t-51.5 65.5q-12 -52 -41.5 -77t-66.5 -25q-40 0 -70.5 23.5t-44.5 76.5q-48 -40 -71 -116.5t-23 -192.5q-1 -113 23.5 -192.5t70.5 -114.5q11 49 43.5 71.5t71.5 22.5q35 0 65 -23t43 -73q48 40 70 116t22 197z" />
    </font>
</defs>
</svg>
