<?xml version="1.0" standalone="no"?>
<!DOCTYPE svg PUBLIC "-//W3C//DTD SVG 1.1//EN" "http://www.w3.org/Graphics/SVG/1.1/DTD/svg11.dtd" >
<svg xmlns="http://www.w3.org/2000/svg" xmlns:xlink="http://www.w3.org/1999/xlink" version="1.1">
<metadata>
Created by FontForge 20170731 at Tue Oct 19 22:13:58 2004
 By Aleksey,,,
(c) Apostrophe ('). Distribute freely. apostrofe@mail.com
</metadata>
<defs>
<font id="Impossible-0" horiz-adv-x="382" >
  <font-face 
    font-family="Impossible - 0"
    font-weight="400"
    font-stretch="normal"
    units-per-em="1000"
    panose-1="2 0 5 6 2 0 0 2 0 4"
    ascent="800"
    descent="-200"
    x-height="662"
    cap-height="812"
    bbox="-101 -234 1000 983"
    underline-thickness="87"
    underline-position="-220"
    unicode-range="U+0005-2122"
  />
<missing-glyph horiz-adv-x="500" 
 />
    <glyph glyph-name=".notdef" horiz-adv-x="500" 
 />
    <glyph glyph-name=".null" horiz-adv-x="0" 
 />
    <glyph glyph-name="nonmarkingreturn" horiz-adv-x="500" 
 />
    <glyph glyph-name="breve" horiz-adv-x="500" 
d="M129 806h64q4 -42 57 -42q52 0 57 42h64q-1 -51 -32.5 -78t-88.5 -27t-88.5 27t-32.5 78z" />
    <glyph glyph-name="dotaccent" horiz-adv-x="500" 
d="M196 803h107v-103h-107v103z" />
    <glyph glyph-name="ring" horiz-adv-x="500" 
d="M215 793q-12 0 -12 -22t12 -22h71q12 0 12 22t-12 22h-71zM192 850h116q28 0 38.5 -11t10.5 -39v-58q0 -28 -11 -39t-38 -11h-116q-27 0 -38 11t-11 39v58q0 28 11 39t38 11z" />
    <glyph glyph-name="hungarumlaut" unicode="&#xa;" horiz-adv-x="500" 
d="M327 806h103l-79 -106h-78zM191 806h98l-60 -106h-82z" />
    <glyph glyph-name="ogonek" horiz-adv-x="500" 
d="M212 0h56q-14 -26 -14 -41q0 -30 34 -30h43v-72q-8 -1 -23 -2t-22 -1q-54 0 -78.5 18.5t-24.5 57.5q0 32 29 70z" />
    <glyph glyph-name="caron" horiz-adv-x="500" 
d="M131 806h90l29 -46l29 46h90l-58 -106h-122z" />
    <glyph glyph-name="dotlessi" unicode="&#xd;" horiz-adv-x="185" 
d="M152 0h-119v518h119v-518zM33 662h119v-111h-119v111z" />
    <glyph glyph-name="fraction" horiz-adv-x="139" 
d="M-21 -2h-80l168 523h81zM243 816l-86 -265h-80l86 265h80z" />
    <glyph glyph-name="fi" horiz-adv-x="377" 
d="M159 0h-120v518h120v-518zM344 0h-119v518h119v-518zM152 816h55v-91h-26q-22 0 -22 -32v-31h47v-92h-47v-19h-120v19h-31v92h31v32q0 36 6 59.5t19 37.5t34.5 19.5t53.5 5.5zM225 662h119v-111h-119v111zM225 812h119v-85h-119v85z" />
    <glyph glyph-name="fl" horiz-adv-x="377" 
d="M159 0h-120v519h120v-519zM344 0h-119v519h119v-519zM152 816h55v-91h-26q-22 0 -22 -32v-31h47v-92h-47v-19h-120v19h-31v92h31v32q0 36 6 59.5t19 37.5t34.5 19.5t53.5 5.5zM225 812h119v-261h-119v261z" />
    <glyph glyph-name="Lslash" horiz-adv-x="273" 
d="M0 412l45 25v83h139v-21l38 21h19v-79l-57 -32v-302h82v-107h-221v348l-45 -25v89zM45 812h139v-261h-139v261z" />
    <glyph glyph-name="lslash" horiz-adv-x="193" 
d="M4 411l33 16v94h119v-43l33 17v-80l-33 -15v-400h-119v347l-33 -15v79zM37 812h119v-260h-119v260z" />
    <glyph glyph-name="Zcaron" horiz-adv-x="302" 
d="M16 0v114l80 404h142l-80 -404h117v-114h-259zM31 812h244v-110l-30 -151h-142l30 151h-102v110zM33 954h90l29 -46l29 46h90l-58 -106h-122z" />
    <glyph glyph-name="zcaron" horiz-adv-x="290" 
d="M19 0v104l115 417h124l-118 -427h129v-94h-250zM36 662h234v-100l-3 -11h-125l5 18h-111v93zM27 806h90l29 -46l29 46h90l-58 -106h-122z" />
    <glyph glyph-name="space" unicode=" " horiz-adv-x="191" 
 />
    <glyph glyph-name="space" unicode="&#xa0;" horiz-adv-x="191" 
 />
    <glyph glyph-name="exclam" unicode="!" horiz-adv-x="197" 
d="M53 196l-12 322h116l-12 -322h-92zM30 812h138l-10 -261h-119zM29 137h139v-137h-139v137z" />
    <glyph glyph-name="quotedbl" unicode="&#x22;" horiz-adv-x="314" 
d="M193 701h80v-150h-80v150zM42 701h80v-150h-80v150zM273 429h-80v87h80v-87zM122 429h-80v87h80v-87z" />
    <glyph glyph-name="numbersign" unicode="#" horiz-adv-x="769" 
d="M129 500h154l7 20h94l-7 -20h122l7 20h94l-7 -20h142l-29 -84h-143l-44 -123h151l-30 -84h-150l-76 -210h-93l76 210h-123l-77 -210h-93l76 210h-146l30 84h145l44 123h-154zM346 416l-44 -124h125l44 124h-125zM359 713h93l-57 -162h-94zM668 713l-57 -162h-94l58 162
h93z" />
    <glyph glyph-name="dollar" unicode="$" 
d="M93 412q-30 17 -45 41.5t-17 67.5h143q3 -8 9.5 -13t17.5 -11l85 -49q35 -20 50 -47t15 -76v-167q0 -101 -23 -130q-23 -28 -90 -29v-59h-92v58q-66 1 -91 31q-24 30 -24 129v177h139v-197q0 -34 22 -34q12 0 17 7.5t5 26.5v171q0 21 -5.5 30t-25.5 21zM146 872h92v-57
q66 -4 89 -32q24 -29 24 -129v-103h-138v122q0 19 -5 26.5t-17 7.5q-21 0 -21 -34v-122h-139v103q0 98 23 127q25 30 92 34v57z" />
    <glyph glyph-name="percent" unicode="%" horiz-adv-x="674" 
d="M131 709v-158h-97v149q0 77 21 97q19 19 96 19q76 0 96 -20q21 -20 21 -96v-149h-97v158q0 23 -21 23q-19 0 -19 -23zM427 16q-21 19 -21 97v147h97v-158q0 -23 20 -23t20 23v158h97v-147q0 -78 -21 -97q-20 -18 -96 -18q-77 0 -96 18zM248 -2h-80l163 518h80zM131 480
q0 -23 20 -23t20 23v36h97v-25q0 -78 -21 -97q-23 -20 -96 -20q-74 0 -96 19q-21 19 -21 98v25h97v-36zM503 331v-31h-97v22q0 77 21 97q19 19 96 19q76 0 96 -21q21 -20 21 -95v-22h-97v31q0 24 -21 24q-19 0 -19 -24zM506 816l-84 -265h-80l84 265h80z" />
    <glyph glyph-name="ampersand" unicode="&#x26;" horiz-adv-x="391" 
d="M94 439q-27 7 -41.5 26.5t-19.5 55.5h136q0 -16 6 -21.5t21 -5.5h17v27h135v-27h43v-114h-43v-380h-134q-116 0 -151 29q-32 30 -32 133v151q0 60 14.5 87.5t48.5 38.5zM167 812h140v-106h-103q-20 0 -27.5 -7t-7.5 -27v-118h-138v5v92q0 105 28 133t108 28zM198 381
q-17 0 -23 -6.5t-6 -24.5v-206q0 -36 26 -36h19v273h-16zM348 637v-83h-135v83h135z" />
    <glyph glyph-name="quotesingle" unicode="'" horiz-adv-x="163" 
d="M42 701h80v-150h-80v150zM122 429h-80v91h80v-91z" />
    <glyph glyph-name="parenleft" unicode="(" horiz-adv-x="212" 
d="M168 12q0 -25 7.5 -32.5t27.5 -9.5v-107h-49q-68 0 -93 28q-26 29 -26 107v520h133v-506zM168 665v-113h-133v129q0 39 6 65t20 41.5t37 22t56 6.5h49v-107q-20 -1 -27.5 -8.5t-7.5 -35.5z" />
    <glyph glyph-name="parenright" unicode=")" horiz-adv-x="212" 
d="M177 -2q0 -39 -6 -65t-20 -41.5t-37 -22t-56 -6.5h-49v107q35 2 35 32v516h133v-520zM177 681v-130h-133v128q0 28 -35 30v107h49q68 0 93 -28q26 -29 26 -107z" />
    <glyph glyph-name="asterisk" unicode="*" horiz-adv-x="352" 
d="M137 812h79v-103l96 32l24 -75l-98 -31l61 -82l-3 -2h-94l-27 38l-27 -38h-96l62 83l-98 32l24 75l97 -32v103z" />
    <glyph glyph-name="plus" unicode="+" horiz-adv-x="833" 
d="M124 339h251v179h83v-179h251v-81h-251v-258h-83v258h-251v81zM375 596h83v-45h-83v45z" />
    <glyph glyph-name="comma" unicode="," horiz-adv-x="202" 
d="M43 235h116v-151q0 -69 -27.5 -98.5t-88.5 -30.5v65q27 2 38 14.5t11 40.5v17h-49v143z" />
    <glyph glyph-name="hyphen" unicode="-" horiz-adv-x="250" 
d="M27 387h195v-107h-195v107z" />
    <glyph glyph-name="period" unicode="." horiz-adv-x="202" 
d="M43 230h116v-143h-116v143z" />
    <glyph glyph-name="slash" unicode="/" horiz-adv-x="265" 
d="M73 -91h-77l125 609h78zM183 813h78l-55 -262h-78z" />
    <glyph glyph-name="zero" unicode="0" 
d="M192 105q12 0 16.5 7.5t4.5 26.5v379h139v-360q0 -107 -29 -134q-29 -26 -130 -26q-105 0 -134 26q-28 28 -28 134v360h138v-379q0 -34 23 -34zM31 654q0 108 29 135q28 27 131 27q104 0 132 -28q29 -29 29 -134v-102h-139v121q0 35 -23 35q-21 0 -21 -35v-121h-138v102z
" />
    <glyph glyph-name="one" unicode="1" horiz-adv-x="272" 
d="M216 0h-139v516h139v-516zM104 812h112v-261h-139v48h-70v108q42 4 67.5 32t29.5 73z" />
    <glyph glyph-name="two" unicode="2" 
d="M192 472q11 25 16 46h143q-5 -40 -22 -79l-144 -329h168v-110h-320v110zM353 654v-103h-141v7v115q0 20 -5 27.5t-17 7.5q-21 0 -21 -35v-122h-138v103q0 109 29 135q28 27 131 27q105 0 134 -30q28 -28 28 -132z" />
    <glyph glyph-name="three" unicode="3" 
d="M183 497q14 0 20 5t8 19h137q-5 -37 -19.5 -55.5t-43.5 -27.5q18 -6 31 -14.5t20.5 -22.5t11 -36t3.5 -55v-152q0 -107 -30 -134q-31 -26 -129 -26q-104 0 -133 26q-29 29 -29 134v172h139v-191q0 -19 5 -26.5t17 -7.5q11 0 16 7.5t5 26.5v207q0 34 -29 34h-49v117h49z
M351 654v-88v-15h-139v122q0 35 -22 35q-21 0 -21 -35v-122h-139v103q0 108 29 135q30 27 133 27q100 0 129 -29q30 -29 30 -133z" />
    <glyph glyph-name="four" unicode="4" 
d="M137 341h53v177h132v-177h38v-107h-38v-234h-136v234h-174v107l39 177h109zM117 812h205v-261h-132v117h-10l-15 -117h-106z" />
    <glyph glyph-name="five" unicode="5" 
d="M171 420h-139v98h314q7 -24 7 -64v-296q0 -107 -30 -134q-31 -26 -128 -26q-106 0 -134 27q-29 29 -29 133v183h139v-202q0 -19 5 -26.5t17 -7.5q11 0 16 7.5t5 26.5v299q0 19 -5 26.5t-16 7.5q-22 0 -22 -25v-27zM32 812h313v-106h-174v-144q35 29 80 29q57 0 81 -40
h-300v261z" />
    <glyph glyph-name="six" unicode="6" 
d="M60 24q-29 29 -29 134v364h139v-61q28 30 76 30q106 0 106 -143v-190q0 -107 -30 -134q-29 -26 -128 -26q-103 0 -134 26zM352 654v-103h-139v123q0 19 -5 26.5t-17 7.5q-11 0 -16 -7t-5 -27v-123h-139v103q0 105 30 134q28 28 133 28q100 0 128 -28q30 -29 30 -134z
M213 338q0 34 -22 34q-12 0 -16.5 -6.5t-4.5 -27.5v-199q0 -20 5 -27t16 -7q12 0 17 7.5t5 26.5v199z" />
    <glyph glyph-name="seven" unicode="7" horiz-adv-x="343" 
d="M183 0h-142l94 516h140zM33 812h276v-106l-28 -155h-139l28 155h-137v106z" />
    <glyph glyph-name="eight" unicode="8" 
d="M94 440q-27 5 -41.5 23.5t-19.5 53.5h138q4 -15 20 -15q15 0 20 15h138q-5 -35 -19.5 -52.5t-41.5 -24.5q35 -12 49.5 -38.5t14.5 -82.5v-161q0 -107 -30 -134q-31 -26 -133 -26q-98 0 -129 26q-29 29 -29 134v161q0 57 14 83.5t49 37.5zM169 673v-122h-138v4v99
q0 108 30 135t132 27q100 0 129 -29q30 -29 30 -133v-99v-4h-139v122q0 35 -22 35q-12 0 -17 -7.5t-5 -27.5zM169 348v-208q0 -35 22 -35t22 35v208q0 34 -22 34q-12 0 -17 -7t-5 -27z" />
    <glyph glyph-name="nine" unicode="9" 
d="M169 474q0 -34 22 -34q12 0 16.5 7t4.5 27v44h139v-360q0 -106 -30 -134q-29 -26 -133 -26q-98 0 -129 26q-29 29 -29 134v122h139v-141q0 -35 22 -35q11 0 16 7.5t5 27.5v212q-30 -30 -76 -30q-106 0 -106 143v54h139v-44zM169 673v-121h-139v102q0 107 30 134
q28 28 129 28q104 0 132 -28q30 -29 30 -134v-102h-139v121q0 20 -5 27.5t-16 7.5q-12 0 -17 -7.5t-5 -27.5z" />
    <glyph glyph-name="colon" unicode=":" horiz-adv-x="202" 
d="M43 230h116v-143h-116v143zM43 710h116v-143h-116v143z" />
    <glyph glyph-name="semicolon" unicode=";" horiz-adv-x="202" 
d="M43 235h116v-151q0 -69 -27.5 -98.5t-88.5 -30.5v65q27 2 38 14.5t11 40.5v17h-49v143zM43 715h116v-143h-116v143z" />
    <glyph glyph-name="less" unicode="&#x3c;" horiz-adv-x="833" 
d="M704 574v-90l-456 -186l456 -186v-89l-575 236v78z" />
    <glyph glyph-name="equal" unicode="=" horiz-adv-x="833" 
d="M124 238h585v-81h-585v81zM124 440h585v-82h-585v82z" />
    <glyph glyph-name="greater" unicode="&#x3e;" horiz-adv-x="833" 
d="M129 574l575 -237v-78l-575 -236v89l456 186l-456 186v90z" />
    <glyph glyph-name="question" unicode="?" horiz-adv-x="377" 
d="M349 561v-7h-138v4v115q0 35 -23 35q-22 0 -22 -35v-119h-138v100q0 104 29 133t127 29q102 0 134 -30q31 -28 31 -120v-105zM122 188v104q0 45 24 92q1 5 3 7l49 100q5 11 10 30h138q-5 -45 -25 -84l-43 -89q-2 -2 -3 -6q-15 -29 -15 -68v-86h-138zM121 135h139v-135
h-139v135z" />
    <glyph glyph-name="at" unicode="@" horiz-adv-x="1000" 
d="M573 138q-27 -42 -62 -62t-86 -20q-75 0 -114 42.5t-39 121.5q0 114 67 193t163 79q83 0 121 -69l27 52h75l-72 -286q-1 -1 -1 -6q-3 -14 -3 -18q0 -19 13 -30t34 -11q25 0 52.5 15t51.5 41q35 37 53.5 86t18.5 106q0 84 -44 149h91q33 -66 33 -148q0 -79 -31 -147
t-91 -116q-68 -55 -155 -55q-102 0 -102 81v2zM48 255q0 150 85 266h96q-49 -54 -75 -121.5t-26 -145.5q0 -152 102 -243q103 -90 273 -90q81 0 157.5 23t142.5 68l33 -46q-147 -111 -329 -111q-188 0 -309 93q-150 111 -150 307zM602 345q-14 86 -90 86q-63 0 -106 -63
q-44 -62 -44 -151q0 -48 21.5 -74t63.5 -26q45 0 80.5 32.5t47.5 84.5zM823 635q49 -38 77 -81h-100q-5 5 -10 9.5t-10 9.5q-92 77 -238 77q-136 0 -230 -61q-13 -8 -25 -17t-23 -18h-105q72 81 168.5 123t217.5 42q81 0 153.5 -22t124.5 -62z" />
    <glyph glyph-name="A" unicode="A" horiz-adv-x="383" 
d="M212 281l-14 240h112l53 -521h-135l-10 173h-58l-10 -173h-134l51 521h112l-14 -240h47zM96 812h185l26 -261h-111l-5 100h-4l-6 -100h-111z" />
    <glyph glyph-name="B" unicode="B" horiz-adv-x="389" 
d="M186 495q25 0 30 21h137q-5 -31 -19 -48.5t-39 -28.5q34 -15 47.5 -42t13.5 -84v-149q0 -106 -32 -135t-131 -29h-158v516h139v-20q2 0 6 -0.5t6 -0.5zM35 812h171q87 0 119 -30q31 -28 31 -114v-114h-138v118q0 34 -29 34h-15v-152h-139v258zM174 377v-270q3 -1 13 -1
q17 0 24 8t7 28v201q0 19 -7 27t-25 8q-2 0 -6 -0.5t-6 -0.5z" />
    <glyph glyph-name="C" unicode="C" horiz-adv-x="377" 
d="M59 22q-28 28 -28 135v363h138v-383q0 -34 23 -34q12 0 16.5 7.5t4.5 26.5v207h139v-187q0 -106 -29 -135q-29 -26 -130 -26q-105 0 -134 26zM352 655v-104h-139v123q0 35 -23 35q-21 0 -21 -35v-123h-138v104q0 108 28 135t132 27q105 0 133 -28t28 -134z" />
    <glyph glyph-name="D" unicode="D" horiz-adv-x="387" 
d="M217 149v366h139v-349q0 -110 -28 -138q-27 -28 -122 -28h-171v515h139v-409h12q19 0 25 7t6 36zM35 812h170q96 0 123 -29q28 -28 28 -136v-96h-139v111q0 30 -6.5 37t-26.5 7h-10v-155h-139v261z" />
    <glyph glyph-name="E" unicode="E" horiz-adv-x="288" 
d="M257 0h-222v519h139v-20h83v-107h-83v-285h83v-107zM35 812h222v-106h-83v-155h-139v261z" />
    <glyph glyph-name="F" unicode="F" horiz-adv-x="284" 
d="M176 0h-139v517h139v-18h83v-107h-83v-392zM37 812h222v-106h-83v-155h-139v261z" />
    <glyph glyph-name="G" unicode="G" horiz-adv-x="385" 
d="M154 -4q-66 0 -94.5 31t-28.5 107v384h138v-381q0 -19 5.5 -26.5t18.5 -7.5q12 0 17 7t5 27v177h-21v107h160v-421h-58l-23 47q-22 -29 -48 -40t-71 -11zM31 654q0 108 29 135q28 28 134 28q101 0 130 -29q30 -29 30 -134v-99h-139v119q0 21 -5 28t-18 7
q-12 0 -17.5 -7.5t-5.5 -27.5v-119h-138v99z" />
    <glyph glyph-name="H" unicode="H" horiz-adv-x="391" 
d="M173 0h-138v518h138v-16h45v16h138v-518h-138v395h-45v-395zM35 812h138v-261h-138v261zM356 812v-261h-138v261h138z" />
    <glyph glyph-name="I" unicode="I" horiz-adv-x="209" 
d="M174 0h-139v516h139v-516zM35 812h139v-261h-139v261z" />
    <glyph glyph-name="J" unicode="J" horiz-adv-x="363" 
d="M167 102q11 0 16 7.5t5 27.5v379h139v-360q0 -105 -29 -134q-29 -26 -128 -26q-95 0 -124 26q-28 28 -28 134v181h126v-200q0 -35 23 -35zM188 812h139v-261h-139v261z" />
    <glyph glyph-name="K" unicode="K" 
d="M170 0h-135v518h135v-30l5 1l4 29h118l-14 -65l89 -453h-139l-58 394h-5v-394zM35 812h135v-261h-135v261zM362 812l-58 -261h-120l41 261h137z" />
    <glyph glyph-name="L" unicode="L" horiz-adv-x="271" 
d="M257 0h-222v518h139v-411h83v-107zM35 812h139v-261h-139v261z" />
    <glyph glyph-name="M" unicode="M" horiz-adv-x="503" 
d="M159 0h-124v520h200l13 -97h7l12 97h201v-520h-124l5 480h-8l-53 -480h-73l-53 480h-8zM468 812v-261h-197l35 261h162zM35 812h162l34 -261h-196v261z" />
    <glyph glyph-name="N" unicode="N" horiz-adv-x="395" 
d="M156 0h-121v518h179l21 -111h6l-1 111h119v-518h-123l-77 416h-6zM35 812h124l49 -261h-173v261zM359 812v-261h-119l-1 261h120z" />
    <glyph glyph-name="O" unicode="O" 
d="M59 22q-28 28 -28 135v359h138v-379q0 -34 23 -34q12 0 16.5 7.5t4.5 26.5v379h139v-359q0 -106 -29 -135q-29 -26 -130 -26q-105 0 -134 26zM169 674v-123h-138v104q0 108 28 135t132 27q105 0 133 -28t28 -134v-104h-139v123q0 35 -23 35q-21 0 -21 -35z" />
    <glyph glyph-name="P" unicode="P" horiz-adv-x="381" 
d="M186 394q21 0 26.5 8t5.5 41v77h138v-67q0 -109 -29 -138q-28 -28 -121 -28h-32v-287h-139v520h139v-126h12zM35 812h170q94 0 123 -29q28 -28 28 -136v-93h-138v101q0 36 -6.5 43.5t-27.5 7.5h-10v-152h-139v258z" />
    <glyph glyph-name="Q" unicode="Q" 
d="M169 138q0 -34 22 -34q12 0 17 7.5t5 26.5v377h139v-357q0 -100 -24 -128q-23 -29 -88 -30l6 -4q23 -4 38.5 -5.5t29.5 -1.5q4 0 10.5 0.5t16.5 1.5h3l-54 -87q-82 13 -154 95q-60 4 -83 33q-22 28 -22 126v357h138v-377zM169 675v-123h-138v103q0 107 30 134
q28 28 132 28q100 0 129 -29q30 -29 30 -133v-103h-139v123q0 19 -5 26.5t-17 7.5t-17 -7t-5 -27z" />
    <glyph glyph-name="R" unicode="R" horiz-adv-x="389" 
d="M186 457q19 0 25.5 8.5t6.5 33.5v19h137q-1 -25 -4.5 -43.5t-8.5 -29.5q-14 -28 -49 -44q34 -13 48.5 -40.5t14.5 -84.5v-276h-138v301q0 20 -7.5 28.5t-25.5 8.5q-2 0 -5.5 -0.5t-5.5 -0.5v-337h-139v518h139v-60q2 0 6.5 -0.5t5.5 -0.5zM35 812h170q91 0 121 -31
q30 -30 30 -134v-93h-138v101q0 36 -7 43.5t-28 7.5h-9v-152h-139v258z" />
    <glyph glyph-name="S" unicode="S" horiz-adv-x="381" 
d="M92 412q-30 18 -45 41t-18 65h146q3 -6 9.5 -11t15.5 -10l85 -49q35 -20 50 -47t15 -76v-169q0 -109 -29 -135q-28 -25 -132 -25q-102 0 -131 26q-29 29 -29 134v179h140v-198q0 -35 23 -35q20 0 20 35v172q0 22 -6 31t-25 20zM350 655v-104h-138v124q0 34 -23 34
q-11 0 -15.5 -7.5t-4.5 -26.5v-124h-140v104q0 105 28 133q29 29 133 29q102 0 131 -27t29 -135z" />
    <glyph glyph-name="T" unicode="T" horiz-adv-x="293" 
d="M216 0h-139v516h139v-516zM9 812h275v-108h-68v-153h-139v153h-68v108z" />
    <glyph glyph-name="U" unicode="U" horiz-adv-x="385" 
d="M60 22q-28 28 -28 134v360h139v-379q0 -35 22 -35q12 0 16.5 7.5t4.5 27.5v379h139v-360q0 -105 -29 -134q-29 -26 -130 -26q-105 0 -134 26zM32 812h139v-261h-139v261zM353 812v-261h-139v261h139z" />
    <glyph glyph-name="V" unicode="V" horiz-adv-x="351" 
d="M96 0l-56 517h119l14 -255h5l16 255h117l-55 -517h-160zM9 812h134l14 -261h-120zM343 812l-28 -261h-119l16 261h131z" />
    <glyph glyph-name="W" unicode="W" horiz-adv-x="523" 
d="M78 0l-54 515h122l12 -181h7l14 181h170l17 -181h7l9 181h119l-49 -515h-143l-40 477h-7l-39 -477h-145zM202 812h121l23 -261h-164zM-6 812h133l17 -261h-124zM529 812l-25 -261h-120l14 261h131z" />
    <glyph glyph-name="X" unicode="X" horiz-adv-x="373" 
d="M80 432l-13 84h240l-12 -84l64 -432h-137l-37 362h-4l-35 -362h-128zM22 812h137l31 -261h-128zM352 812l-39 -261h-111l26 261h124z" />
    <glyph glyph-name="Y" unicode="Y" horiz-adv-x="332" 
d="M97 328l-38 189h108l2 -18l2 18h106l-36 -189v-328h-144v328zM0 812h133l30 -261h-111zM333 812l-50 -261h-109l28 261h131z" />
    <glyph glyph-name="Z" unicode="Z" horiz-adv-x="302" 
d="M16 0v114l80 404h142l-80 -404h117v-114h-259zM31 812h244v-110l-30 -151h-142l30 151h-102v110z" />
    <glyph glyph-name="bracketleft" unicode="[" horiz-adv-x="219" 
d="M168 -26h43v-107h-176v650h133v-543zM168 705v-154h-133v261h176v-107h-43z" />
    <glyph glyph-name="backslash" unicode="\" horiz-adv-x="265" 
d="M-1 813h76l189 -904h-79z" />
    <glyph glyph-name="bracketright" unicode="]" horiz-adv-x="219" 
d="M9 -26h42v547h133v-654h-175v107zM9 812h175v-258h-133v151h-42v107z" />
    <glyph glyph-name="asciicircum" unicode="^" horiz-adv-x="1000" 
d="M447 713h106l143 -162h-114l-82 82l-83 -82h-114zM305 439h-101l71 80h110zM694 439l-80 80h110l71 -80h-101z" />
    <glyph glyph-name="underscore" unicode="_" horiz-adv-x="500" 
d="M0 -150h500v-84h-500v84z" />
    <glyph glyph-name="grave" unicode="`" horiz-adv-x="500" 
d="M146 806h110l39 -106h-88z" />
    <glyph glyph-name="a" unicode="a" horiz-adv-x="331" 
d="M83 359l100 58v101h120v-518h-120v27q-31 -29 -73 -29q-45 0 -65 29q-19 28 -19 118v113q0 38 12.5 60t44.5 41zM276 640q24 -24 27 -89h-121q-1 22 -18 22q-16 0 -19 -22h-119q1 66 27 90q25 25 111 25q83 0 112 -26zM145 439h-119v79h119v-79zM183 305l-20 -12
q-18 -11 -18 -33v-138q0 -34 20 -34q10 0 14 7t4 27v183z" />
    <glyph glyph-name="b" unicode="b" horiz-adv-x="339" 
d="M171 96q10 0 14.5 7t4.5 25v393h119v-10v-359q0 -45 -5 -74.5t-15.5 -47.5t-27 -25t-38.5 -7q-41 0 -71 30v-28h-119v521h119v-393q0 -18 4.5 -25t14.5 -7zM33 812h119v-178q32 32 68 32q49 0 69 -32q15 -24 19 -83h-120q-3 15 -16 15q-16 0 -19 -15h-120v261z" />
    <glyph glyph-name="c" unicode="c" horiz-adv-x="328" 
d="M52 21q-26 26 -26 102v398h119v-399q0 -19 4.5 -26.5t14.5 -7.5t14.5 7t4.5 27v162h120v-161q0 -77 -27 -102q-28 -23 -114 -23q-82 0 -110 23zM276 640q24 -24 27 -89h-121q-1 22 -18 22q-10 0 -14 -4.5t-5 -17.5h-119q1 66 27 90q25 25 111 25q83 0 112 -26zM303 392
h-120v129h120v-129z" />
    <glyph glyph-name="d" unicode="d" horiz-adv-x="339" 
d="M167 96q20 0 20 32v393h119v-521h-119v28q-14 -15 -32 -22t-36 -7q-50 0 -69 30q-20 32 -20 123v359v10h119v-393q0 -18 4 -25t14 -7zM187 812h119v-261h-120q-3 15 -18 15q-14 0 -18 -15h-119q3 58 19 83q21 32 70 32q35 0 67 -32v178z" />
    <glyph glyph-name="e" unicode="e" horiz-adv-x="328" 
d="M145 403h38v117h120v-209h-158v-189q0 -19 4.5 -26.5t14.5 -7.5t14.5 7t4.5 27v123h120v-122q0 -77 -27 -102q-28 -23 -114 -23q-82 0 -110 23q-26 26 -26 102v397h119v-117zM165 573q-10 0 -14.5 -4.5t-5.5 -17.5h-119q1 66 27 90q25 25 111 25q83 0 112 -26
q24 -24 27 -89h-121q-1 22 -17 22z" />
    <glyph glyph-name="f" unicode="f" horiz-adv-x="215" 
d="M159 0h-120v515h120v-515zM152 816h61v-91h-32q-22 0 -22 -32v-31h54v-92h-54v-19h-120v19h-31v92h31v32q0 36 6 59.5t19 37.5t34.5 19.5t53.5 5.5z" />
    <glyph glyph-name="g" unicode="g" horiz-adv-x="335" 
d="M163 97q11 0 15.5 6.5t4.5 25.5v390h119v-558q0 -33 -5.5 -54.5t-19.5 -35t-37 -19t-59 -5.5h-150v92h119q3 0 7.5 0.5l4.5 0.5q12 0 16.5 5.5t4.5 22.5v60q-14 -15 -32 -22t-36 -7q-48 0 -69 30q-20 32 -20 123v359v8h119v-390q0 -18 4 -25t14 -7zM183 634v27h119v-110
h-121q-3 15 -17 15t-18 -15h-119q3 58 19 83q21 32 70 32q35 0 67 -32z" />
    <glyph glyph-name="h" unicode="h" horiz-adv-x="342" 
d="M152 0h-120v514h120v-514zM309 0h-120v514h120v-3v-511zM32 812h120v-178q32 32 67 32q49 0 69 -32q15 -24 20 -83h-120q-3 16 -17 16q-15 0 -18 -16h-121v261z" />
    <glyph glyph-name="i" unicode="i" horiz-adv-x="185" 
d="M152 0h-119v518h119v-518zM33 662h119v-110h-119v110zM33 812h119v-95h-119v95z" />
    <glyph glyph-name="j" unicode="j" horiz-adv-x="185" 
d="M153 -18q0 -89 -25 -111q-24 -24 -93 -24h-71v91h37q32 0 32 27v553h120v-536zM153 662v-111h-120v111h120zM33 812h120v-95h-120v95z" />
    <glyph glyph-name="k" unicode="k" horiz-adv-x="333" 
d="M145 0h-112v518h112v-98h7l18 98h109l-32 -147l78 -371h-122l-51 313h-7v-313zM33 812h112v-261h-112v261zM311 662l-25 -111h-109l21 111h113z" />
    <glyph glyph-name="l" unicode="l" horiz-adv-x="185" 
d="M152 0h-119v518h119v-518zM33 812h119v-261h-119v261z" />
    <glyph glyph-name="m" unicode="m" horiz-adv-x="497" 
d="M152 0h-117v518h117v-518zM307 0h-117v518h117v-518zM462 0h-117v518h117v-518zM297 628q33 38 78 38q42 0 62.5 -26t23.5 -89h-117q-4 16 -18 16q-15 0 -18 -16h-119q-4 16 -18 16q-15 0 -18 -16h-118v111h117v-32q30 36 75 36q40 0 70 -38z" />
    <glyph glyph-name="n" unicode="n" horiz-adv-x="342" 
d="M152 0h-119v521h119v-521zM309 511v-511h-119v521h119v-10zM289 634q15 -24 19 -83h-119q-4 16 -18 16q-15 0 -18 -16h-120v110h119v-27q32 32 68 32q49 0 69 -32z" />
    <glyph glyph-name="o" unicode="o" horiz-adv-x="328" 
d="M165 88q10 0 14 6.5t4 27.5v398h120v-397q0 -77 -27 -102q-28 -23 -114 -23q-82 0 -110 23q-26 26 -26 102v397h119v-398q0 -34 20 -34zM165 573q-10 0 -14.5 -4.5t-5.5 -17.5h-119q1 66 27 90q25 25 111 25q83 0 112 -26q24 -24 27 -89h-121q-1 22 -17 22z" />
    <glyph glyph-name="p" unicode="p" horiz-adv-x="335" 
d="M309 511v-359q0 -45 -5 -74.5t-15.5 -47.5t-27 -25t-38.5 -7q-41 0 -71 30v-181h-119v674h119v-393q0 -18 4.5 -25t14.5 -7q19 0 19 32v393h119v-10zM289 634q15 -24 19 -83h-120q-2 15 -16 15q-15 0 -19 -15h-120v110h119v-27q32 32 68 32q49 0 69 -32z" />
    <glyph glyph-name="q" unicode="q" horiz-adv-x="335" 
d="M164 96q10 0 14.5 7t4.5 25v391h119v-672h-119v181q-14 -15 -32 -22t-36 -7q-48 0 -69 30q-20 32 -20 123v359v8h119v-391q0 -18 4.5 -25t14.5 -7zM183 634v27h119v-110h-121q-3 15 -17 15t-18 -15h-119q3 58 19 83q21 32 70 32q35 0 67 -32z" />
    <glyph glyph-name="r" unicode="r" horiz-adv-x="316" 
d="M152 0h-119v520h119v-520zM283 634q15 -24 19 -83h-113q-4 16 -18 16q-15 0 -18 -16h-120v110h119v-27q14 15 32 23.5t34 8.5q45 0 65 -32zM303 511v-118h-113v127h113v-9z" />
    <glyph glyph-name="s" unicode="s" horiz-adv-x="327" 
d="M25 243h120v-123q0 -32 18 -32q10 0 14.5 6.5t4.5 25.5v117q0 23 -8.5 33t-29.5 22l-56 30q-17 10 -29.5 20t-19.5 21q-14 23 -14 79v76h120v-65q0 -35 38 -56q3 -2 5 -3l4 -2l59 -34q14 -8 23.5 -17t15.5 -21t9 -29.5t3 -41.5v-103q0 -101 -26 -125q-26 -23 -115 -23
q-85 0 -111 23q-25 25 -25 125v97zM163 574q-17 0 -18 -22h-120q4 64 27 87q27 27 118 27q82 0 107 -25q10 -11 16 -32.5t8 -56.5h-120q-1 22 -18 22zM302 440h-120v78h120v-2v-76z" />
    <glyph glyph-name="t" unicode="t" horiz-adv-x="214" 
d="M62 23q-24 22 -24 111v384h119v-397q0 -17 7 -24t25 -7h15v-90h-49q-67 0 -93 23zM38 812h119v-150h47v-92h-47v-16h-119v16h-31v92h31v150z" />
    <glyph glyph-name="u" unicode="u" horiz-adv-x="342" 
d="M53 29q-20 32 -20 123v366h119v-391q0 -18 4.5 -25t14.5 -7q11 0 15 7t4 25v391h119v-518h-119v28q-14 -15 -32 -22t-36 -7q-50 0 -69 30zM33 662h119v-111h-119v111zM309 662v-111h-119v111h119z" />
    <glyph glyph-name="v" unicode="v" horiz-adv-x="306" 
d="M84 0l-57 518h108l16 -299h5l15 299h108l-57 -518h-138zM12 662h116l6 -111h-110zM295 662l-13 -111h-109l6 111h116z" />
    <glyph glyph-name="w" unicode="w" horiz-adv-x="467" 
d="M82 0l-58 521h110l14 -250h7l16 250h123l16 -250h8l14 250h108l-56 -521h-117l-31 392h-7l-30 -392h-117zM9 662h118l6 -111h-112zM456 662l-12 -111h-111l7 111h116zM181 662h104l7 -111h-119z" />
    <glyph glyph-name="x" unicode="x" horiz-adv-x="333" 
d="M76 358l-31 163h108l9 -95h4l10 95h109l-31 -163l65 -358h-124l-28 271h-4l-28 -271h-124zM313 662l-22 -111h-112l12 111h122zM18 662h122l10 -111h-111z" />
    <glyph glyph-name="y" unicode="y" horiz-adv-x="303" 
d="M217 -21q-9 -85 -35 -108q-26 -24 -88 -24h-106v92h65q21 0 29 6t8 21q0 2 -0.5 6.5t-0.5 6.5l-62 538h105l17 -288h7l16 288h105zM294 662l-13 -111h-107l6 111h114zM10 662h114l6 -111h-107z" />
    <glyph glyph-name="z" unicode="z" horiz-adv-x="290" 
d="M19 0v104l115 417h124l-118 -427h129v-94h-250zM36 662h234v-100l-3 -11h-125l5 18h-111v93z" />
    <glyph glyph-name="braceleft" unicode="{" horiz-adv-x="500" 
d="M100 302q62 0 87.5 28.5t25.5 98.5v92h100v-109q0 -77 -22 -108q-21 -31 -77 -45q56 -14 77 -45q22 -31 22 -108v-115q0 -66 19 -85q19 -21 73 -21q3 0 10.5 0.5t11.5 0.5v-86h-31q-51 0 -81.5 6t-51.5 18q-28 16 -39 47q-11 33 -11 99v119q0 70 -25.5 99t-87.5 29
q-3 0 -10 -0.5t-11 -0.5v87q4 0 11 -0.5t10 -0.5zM427 721v-87q-4 0 -12 0.5t-11 0.5q-53 0 -72 -21q-16 -16 -19 -62h-100q0 66 11 99q11 30 39 46q22 13 53.5 18.5t88.5 5.5h22z" />
    <glyph glyph-name="bar" unicode="|" horiz-adv-x="500" 
d="M294 -234h-87v752h87v-752zM207 764h87v-213h-87v213z" />
    <glyph glyph-name="braceright" unicode="}" horiz-adv-x="500" 
d="M209 304q-22 31 -22 108v104h100v-87q0 -70 25.5 -98.5t87.5 -28.5q3 0 10 0.5t11 0.5v-87q-4 0 -11 0.5t-10 0.5q-62 0 -87.5 -29t-25.5 -99v-119q0 -67 -11 -100q-11 -30 -39 -46q-21 -13 -52.5 -18.5t-88.5 -5.5h-22v86q4 0 11.5 -0.5t10.5 -0.5q52 0 72 21
q19 19 19 85v115q0 76 22 107q22 32 78 46q-56 13 -78 45zM74 721h22q56 0 87.5 -5.5t53.5 -18.5q14 -8 23.5 -19t15.5 -27.5t8.5 -41t2.5 -58.5h-101q-2 45 -18 63q-18 21 -71 21q-3 0 -11 -0.5t-12 -0.5v87z" />
    <glyph glyph-name="asciitilde" unicode="~" horiz-adv-x="833" 
d="M747 383v-90q-100 -69 -186 -69q-21 0 -45 4t-48 13l-15 5t-22 8q-104 36 -156 36q-40 0 -85 -18t-103 -60v91q103 70 189 70q30 0 61 -6t82 -23q2 -1 7.5 -2.5t13.5 -5.5q77 -28 122 -28q42 0 86.5 18t98.5 57z" />
    <glyph glyph-name="exclamdown" unicode="&#xa1;" horiz-adv-x="197" 
d="M168 0h-138l19 521h99zM29 812h139v-136h-139v136zM53 617h92l2 -66h-97z" />
    <glyph glyph-name="cent" unicode="&#xa2;" 
d="M63 65q-21 28 -21 128v325h129v-354q0 -35 21 -35q20 0 20 35v155h128v-126q0 -101 -21 -129q-22 -27 -80 -31v-57h-94v57q-62 5 -82 32zM145 756h94v-57q60 -5 80 -32q19 -27 21 -116h-128v17q0 19 -4.5 26.5t-16.5 7.5q-11 0 -15.5 -7.5t-4.5 -26.5v-17h-129
q1 91 21 117q22 27 82 31v57zM340 427h-128v91h128v-91z" />
    <glyph glyph-name="sterling" unicode="&#xa3;" 
d="M2 494h38v26h139v-26h138v-110h-137v-278h12q17 0 23.5 6.5t6.5 37.5v181h139v-165q0 -110 -28 -138q-27 -28 -123 -28h-170v384h-38v110zM361 654v-39h-139v58q0 20 -5 27.5t-17 7.5q-21 0 -21 -35v-122h-139v103q0 108 28 135t132 27q103 0 132 -29t29 -133z" />
    <glyph glyph-name="yen" unicode="&#xa5;" horiz-adv-x="332" 
d="M78 419l-20 100h108l4 -28l3 28h105l-19 -100h64v-91h-82v-328h-144v328h-81v91h62zM0 812h133l30 -261h-112zM333 812l-49 -261h-108l26 261h131z" />
    <glyph glyph-name="brokenbar" unicode="&#xa6;" horiz-adv-x="500" 
d="M207 199h87v-368h-87v368zM294 329h-87v188h87v-188zM207 699h87v-148h-87v148z" />
    <glyph glyph-name="section" unicode="&#xa7;" horiz-adv-x="361" 
d="M30 125h129v-85q0 -19 5 -26.5t17 -7.5q18 0 27 33v84q0 5 -1 9.5l-1 4.5q0 8 -8.5 17.5t-20.5 16.5l-99 55q-26 14 -37 38.5t-11 80.5v86q0 42 6 59.5t22 26.5q-1 0 -1 1h217l2 -1q15 -9 26 -18.5t17.5 -22.5t9.5 -31.5t3 -45.5v-98q0 -35 -7 -52.5t-23 -26.5
q16 -12 23 -30.5t7 -55.5v-67q0 -103 -30 -131q-32 -29 -124 -29q-91 0 -120 29q-28 28 -28 131v56zM153 619q0 -35 34 -53l25 -14h-178q-4 15 -4 48q0 1 0.5 2.5t0.5 2.5q0 2 -1 3v58q0 91 30 120q30 30 126 30q88 0 117 -29t29 -133v-49h-124v78q0 34 -29 34
q-26 0 -26 -34v-64zM208 288v95q0 21 -4.5 29.5t-15.5 15.5l-35 24v-93q0 -24 4.5 -32t18.5 -18z" />
    <glyph glyph-name="dieresis" unicode="&#xa8;" horiz-adv-x="500" 
d="M268 707v96h98v-96h-98zM135 707v96h98v-96h-98z" />
    <glyph glyph-name="copyright" unicode="&#xa9;" horiz-adv-x="833" 
d="M725 357q0 91 -46 164h60q39 -75 39 -164q0 -75 -26.5 -140t-77.5 -114q-54 -52 -120 -79t-138 -27q-71 -3 -137.5 26t-116.5 79.5t-79.5 116.5t-27.5 138q0 87 41 164h60q-47 -77 -47 -164q-3 -61 22.5 -117.5t69 -99.5t100 -68t116.5 -23q61 0 117 23.5t102 68.5
q45 43 67 98t22 118zM589 441h-81q-5 36 -29.5 55.5t-63.5 19.5q-48 0 -75.5 -42t-27.5 -117t28 -115t80 -40q39 0 63 21.5t29 60.5h81q-2 -33 -15.5 -60t-37 -46t-55 -29.5t-68.5 -10.5q-45 0 -80.5 15t-61 43t-39 68t-13.5 90q0 54 15 96t43 71h274q30 -34 34 -80z
M416 718q75 0 140 -27t117 -79q28 -29 49 -61h-65l-21 24q-45 45 -100.5 67.5t-118.5 22.5t-118.5 -22t-98.5 -67q-6 -6 -11.5 -12.5t-10.5 -12.5h-65q11 17 23.5 32t26.5 30q103 105 253 105zM419 576q59 0 100 -25h-200q43 25 100 25z" />
    <glyph glyph-name="ordfeminine" unicode="&#xaa;" horiz-adv-x="248" 
d="M227 726v-172h-90v9l-15 -9h-100q3 14 13 24.5t27 21.5l75 41v86q0 14 -3.5 18.5t-10.5 4.5q-14 0 -14 -23v-71h-89v70q0 55 20 72t83 17q64 0 84 -18t20 -71zM124 411q7 0 10 4.5t3 18.5v87h90v-172h-90v19q-22 -22 -54 -22q-18 0 -30 4.5t-19.5 16.5t-10.5 32t-3 52v70
h89v-87q0 -23 15 -23z" />
    <glyph glyph-name="guillemotleft" unicode="&#xab;" horiz-adv-x="305" 
d="M196 51l-44 281l29 186h87l-29 -186l44 -281h-87zM70 51l-44 281l29 186h87l-29 -186l44 -281h-87zM196 611h87l-10 -60h-87zM70 611h87l-10 -60h-87z" />
    <glyph glyph-name="logicalnot" unicode="&#xac;" horiz-adv-x="833" 
d="M124 421h585v-245h-81v164h-504v81z" />
    <glyph glyph-name="registered" unicode="&#xae;" horiz-adv-x="833" 
d="M356 161h-87v359h304q23 -26 23 -64q0 -45 -23.5 -73.5t-66.5 -38.5l90 -183h-97l-80 169h-63v-169zM725 352q0 95 -46 168h60q19 -38 29 -78t10 -85q0 -75 -27 -140t-79 -116q-54 -51 -119 -77.5t-137 -26.5t-138 26.5t-118 80.5q-51 52 -78 116.5t-27 136.5
q0 86 39 163h62q-47 -77 -47 -163q0 -61 23 -116t66 -100q45 -45 100.5 -68.5t113.5 -23.5q130 0 223 90q43 42 66.5 97t23.5 116zM416 718q75 0 141 -27t118 -81q27 -28 47 -59h-65q-5 5 -10 11t-10 11q-92 92 -220 92q-127 0 -215 -88q-6 -7 -12 -13t-11 -13h-68
q11 17 24.5 33t28.5 31q103 103 252 103zM356 511v-127h57q49 0 71.5 15t22.5 47q0 33 -23.5 49t-74.5 16h-53zM269 566h156q30 0 55 -4t45 -11h-256v15z" />
    <glyph glyph-name="degree" unicode="&#xb0;" horiz-adv-x="329" 
d="M165 713q59 0 101 -43q43 -42 43 -102q0 -5 -0.5 -9t-0.5 -8h-55q1 5 1.5 9t0.5 9q0 18 -7 34.5t-19 29t-28.5 19.5t-35.5 7t-35.5 -7t-29 -19.5t-19.5 -29t-7 -34.5q0 -5 0.5 -9t1.5 -9h-55v17q0 61 42 103t102 42zM165 478q52 0 77 43h59q-10 -30 -35 -55
q-42 -42 -102 -42q-58 0 -102 41q-25 25 -34 56h60q25 -43 77 -43z" />
    <glyph glyph-name="plusminus" unicode="&#xb1;" horiz-adv-x="833" 
d="M124 426h251v93h83v-93h251v-81h-251v-163h-83v163h-251v81zM124 89h585v-82h-585v82zM375 589h83v-38h-83v38z" />
    <glyph glyph-name="twosuperior" unicode="&#xb2;" horiz-adv-x="252" 
d="M233 717v-62q0 -18 -3.5 -33.5t-12.5 -33.5l-18 -37h-100l28 57q7 16 10 27t3 25v69q0 12 -3.5 16.5t-11.5 4.5q-13 0 -13 -21v-85h-92v73q0 66 19 82t87 16q70 0 88 -18q19 -18 19 -80zM22 325v66l62 129h100l-62 -129h111v-66h-211z" />
    <glyph glyph-name="threesuperior" unicode="&#xb3;" horiz-adv-x="252" 
d="M232 717v-52q0 -37 -10 -54t-34 -23q16 -5 25 -13t14 -23h-99q-2 0 -3.5 0.5t-3.5 0.5h-33v70h33q11 0 15 5t4 19v82q0 21 -15 21q-7 0 -10 -4.5t-3 -16.5v-75h-92v63q0 65 19 81q20 17 88 17q65 0 85 -18q20 -17 20 -80zM126 388q14 0 14 20v110h92v-7v-91
q0 -64 -20 -81q-19 -16 -85 -16q-69 0 -88 16t-19 81v98h92v-110q0 -20 14 -20z" />
    <glyph glyph-name="acute" unicode="&#xb4;" horiz-adv-x="500" 
d="M244 806h110l-61 -106h-89z" />
    <glyph glyph-name="mu" unicode="&#xb5;" horiz-adv-x="590" 
d="M67 -208h-110l141 729h112l-59 -303q-6 -29 -6 -51q0 -96 89 -96q59 0 94 43t55 143l51 264h110l-69 -354q-5 -24 -7 -40t-2 -25q0 -18 7.5 -25t25.5 -7q14 0 17 1l-16 -76q-16 -4 -33.5 -6t-39.5 -2q-73 0 -73 59v7q-20 -32 -52.5 -49.5t-71.5 -17.5q-40 0 -67.5 11.5
t-47.5 39.5z" />
    <glyph glyph-name="paragraph" unicode="&#xb6;" horiz-adv-x="500" 
d="M473 722v-48h-57v-123h-63v123h-82v-123h-244v1q0 78 51.5 124t139.5 46h255zM207 383q-72 2 -119 38.5t-58 96.5h241v-518h-64v383zM416 0h-63v518h63v-518z" />
    <glyph glyph-name="periodcentered" unicode="&#xb7;" horiz-adv-x="191" 
d="M96 476q29 0 49 -21t20 -50q0 -28 -21 -48t-50 -20q-27 0 -47.5 20.5t-20.5 49.5q0 28 21 48.5t49 20.5z" />
    <glyph glyph-name="periodcentered" unicode="&#x2219;" horiz-adv-x="191" 
d="M96 476q29 0 49 -21t20 -50q0 -28 -21 -48t-50 -20q-27 0 -47.5 20.5t-20.5 49.5q0 28 21 48.5t49 20.5z" />
    <glyph glyph-name="cedilla" unicode="&#xb8;" horiz-adv-x="500" 
d="M240 0h55q29 -38 29 -70q0 -39 -24.5 -57.5t-78.5 -18.5q-7 0 -22 1t-23 2v72h43q34 0 34 30q0 16 -13 41z" />
    <glyph glyph-name="onesuperior" unicode="&#xb9;" horiz-adv-x="180" 
d="M69 812h74v-258h-92v130h-46v65q28 3 44.5 19.5t19.5 43.5zM143 325h-92v196h92v-196z" />
    <glyph glyph-name="ordmasculine" unicode="&#xba;" horiz-adv-x="246" 
d="M124 411q7 0 10 4t3 19v186h90v-185q0 -54 -20 -72q-20 -17 -85 -17q-62 0 -82 17q-20 18 -20 72v185h89v-186q0 -23 15 -23zM20 726q0 55 20 72t83 17q64 0 84 -18t20 -71v-75h-90v76q0 23 -13 23q-15 0 -15 -23v-76h-89v75z" />
    <glyph glyph-name="guillemotright" unicode="&#xbb;" horiz-adv-x="305" 
d="M191 333l-30 188h87l30 -188l-44 -282h-87zM65 333l-30 188h87l30 -188l-44 -282h-87zM21 611h87l9 -57h-87zM147 611h87l9 -57h-87z" />
    <glyph glyph-name="onequarter" unicode="&#xbc;" horiz-adv-x="551" 
d="M318 131v60l34 136h64l-20 -136h34v136h83v-136h24v-60h-24v-131h-86v131h-109zM148 -2h-80l169 521h80zM66 812h70v-261h-87v141h-45v61q56 5 62 59zM414 816l-86 -265h-80l86 265h80zM136 357h-87v162h87v-162zM423 374l-2 -15h-61l24 96h129v-96h-83v15h-7z" />
    <glyph glyph-name="onehalf" unicode="&#xbd;" horiz-adv-x="551" 
d="M148 -2h-80l170 522h80zM433 267q5 11 7.5 22.5t3.5 22.5v28h88v-32q0 -16 -3.5 -30.5t-11.5 -31.5l-90 -184h105v-62h-201v62l100 202l1 1q0 1 1 2zM66 812h70v-261h-87v141h-45v61q56 5 62 59zM414 816l-86 -265h-80l86 265h80zM514 440q17 -17 18 -71h-88v8
q0 11 -3 15t-11 4q-14 0 -14 -19v-8h-86q0 59 18 73q18 15 82 15q67 0 84 -17zM136 357h-87v163h87v-163zM416 298h-86v42h86v-42z" />
    <glyph glyph-name="threequarters" unicode="&#xbe;" horiz-adv-x="620" 
d="M388 131v60l31 124h65l-18 -124h34v124h83v-124h24v-60h-24v-131h-86v131h-109zM218 -2h-80l168 517h80zM221 723v-49q0 -34 -9.5 -50t-31.5 -22q19 -5 28 -15t12 -32h-86q-3 15 -19 15h-31v65h31q19 0 19 23v76q0 19 -14 19t-14 -19v-70h-87v59q0 60 19 75q19 16 83 16
q65 0 81 -16q19 -16 19 -75zM120 416q14 0 14 19v80h87v-70q0 -59 -19 -75q-18 -15 -81 -15q-65 0 -84 16q-18 16 -18 74v70h87v-80q0 -19 14 -19zM484 816l-85 -261h-80l85 261h80zM493 374l-3 -16h-61l25 97h129v-97h-83v16h-7z" />
    <glyph glyph-name="questiondown" unicode="&#xbf;" horiz-adv-x="377" 
d="M101 468q13 27 15 53h139v-1q0 -40 -23 -88q-2 -3 -2.5 -5t-1.5 -4l-49 -101q-13 -25 -13 -68v-115q0 -20 5 -27t17 -7t17 7.5t5 26.5v142h139v-123q0 -104 -29 -133q-29 -26 -127 -26q-104 0 -135 28q-30 28 -30 119v106q0 37 6.5 66t20.5 57l44 90l1 1q0 1 1 2z
M116 812h139v-135h-139v135zM117 625h138v-74h-138v74z" />
    <glyph glyph-name="Agrave" unicode="&#xc0;" horiz-adv-x="383" 
d="M212 281l-14 240h112l53 -521h-135l-10 173h-58l-10 -173h-134l51 521h112l-14 -240h47zM96 812h185l26 -261h-111l-5 100h-4l-6 -100h-111zM89 954h110l39 -106h-88z" />
    <glyph glyph-name="Aacute" unicode="&#xc1;" horiz-adv-x="383" 
d="M212 281l-14 240h112l53 -521h-135l-10 173h-58l-10 -173h-134l51 521h112l-14 -240h47zM96 812h185l26 -261h-111l-5 100h-4l-6 -100h-111zM187 954h110l-61 -106h-89z" />
    <glyph glyph-name="Acircumflex" unicode="&#xc2;" horiz-adv-x="383" 
d="M212 281l-14 240h112l53 -521h-135l-10 173h-58l-10 -173h-134l51 521h112l-14 -240h47zM96 812h185l26 -261h-111l-5 100h-4l-6 -100h-111zM132 954h122l58 -106h-90l-29 46l-29 -46h-90z" />
    <glyph glyph-name="Atilde" unicode="&#xc3;" horiz-adv-x="383" 
d="M212 281l-14 240h112l53 -521h-135l-10 173h-58l-10 -173h-134l51 521h112l-14 -240h47zM96 812h185l26 -261h-111l-5 100h-4l-6 -100h-111zM255 952h65v-29q0 -66 -53 -66q-7 0 -11.5 0.5t-9.5 1.5l-82 13q-1 0 -3.5 0.5t-3.5 0.5q-25 0 -25 -24h-65v30q0 65 53 65
q11 0 14.5 -0.5t6.5 -0.5l82 -14q1 0 3.5 -0.5t3.5 -0.5q25 0 25 24z" />
    <glyph glyph-name="Adieresis" unicode="&#xc4;" horiz-adv-x="383" 
d="M212 281l-14 240h112l53 -521h-135l-10 173h-58l-10 -173h-134l51 521h112l-14 -240h47zM96 812h185l26 -261h-111l-5 100h-4l-6 -100h-111zM211 855v96h98v-96h-98zM78 855v96h98v-96h-98z" />
    <glyph glyph-name="Aring" unicode="&#xc5;" horiz-adv-x="383" 
d="M212 281l-14 240h112l53 -521h-135l-10 173h-58l-10 -173h-134l51 521h113l-15 -240h47zM95 797h187l25 -246h-111l-5 84h-4l-5 -84h-112zM131 983h116q28 0 38.5 -11t10.5 -38v-58q0 -27 -11 -38.5t-38 -11.5h-116q-27 0 -38 11t-11 39v58q0 27 10.5 38t38.5 11z
M153 926q-6 0 -8.5 -4.5t-2.5 -16.5q0 -13 2 -17.5t9 -4.5h72q12 0 12 22q0 12 -2.5 16.5t-9.5 4.5h-72z" />
    <glyph glyph-name="AE" unicode="&#xc6;" horiz-adv-x="485" 
d="M171 281h68v238h132v-20h83v-107h-83v-285h83v-107h-218v173h-84l-21 -173h-133l77 519h125zM120 812h334v-106h-83v-155h-132v155h-15l-20 -155h-124z" />
    <glyph glyph-name="Ccedilla" unicode="&#xc7;" horiz-adv-x="377" 
d="M59 22q-28 28 -28 135v363h138v-383q0 -34 23 -34q12 0 16.5 7.5t4.5 26.5v207h139v-187q0 -106 -29 -135q-29 -26 -130 -26q-105 0 -134 26zM352 655v-104h-139v123q0 35 -23 35q-21 0 -21 -35v-123h-138v104q0 108 28 135t132 27q105 0 133 -28t28 -134zM180 0h55
q29 -38 29 -70q0 -39 -24.5 -57.5t-78.5 -18.5q-7 0 -22 1t-23 2v72h43q34 0 34 30q0 16 -13 41z" />
    <glyph glyph-name="Egrave" unicode="&#xc8;" horiz-adv-x="288" 
d="M257 0h-222v519h139v-20h83v-107h-83v-285h83v-107zM35 812h222v-106h-83v-155h-139v261zM41 954h110l39 -106h-88z" />
    <glyph glyph-name="Eacute" unicode="&#xc9;" horiz-adv-x="288" 
d="M257 0h-222v519h139v-20h83v-107h-83v-285h83v-107zM35 812h222v-106h-83v-155h-139v261zM139 954h110l-61 -106h-89z" />
    <glyph glyph-name="Ecircumflex" unicode="&#xca;" horiz-adv-x="288" 
d="M257 0h-222v519h139v-20h83v-107h-83v-285h83v-107zM35 812h222v-106h-83v-155h-139v261zM84 954h122l58 -106h-90l-29 46l-29 -46h-90z" />
    <glyph glyph-name="Edieresis" unicode="&#xcb;" horiz-adv-x="288" 
d="M257 0h-222v519h139v-20h83v-107h-83v-285h83v-107zM35 812h222v-106h-83v-155h-139v261zM163 855v96h98v-96h-98zM30 855v96h98v-96h-98z" />
    <glyph glyph-name="Igrave" unicode="&#xcc;" horiz-adv-x="209" 
d="M174 0h-139v516h139v-516zM35 812h139v-261h-139v261zM2 954h110l39 -106h-88z" />
    <glyph glyph-name="Iacute" unicode="&#xcd;" horiz-adv-x="209" 
d="M174 0h-139v516h139v-516zM35 812h139v-261h-139v261zM100 954h110l-61 -106h-89z" />
    <glyph glyph-name="Icircumflex" unicode="&#xce;" horiz-adv-x="209" 
d="M174 0h-139v516h139v-516zM35 812h139v-261h-139v261zM45 954h122l58 -106h-90l-29 46l-29 -46h-89z" />
    <glyph glyph-name="Idieresis" unicode="&#xcf;" horiz-adv-x="209" 
d="M174 0h-139v516h139v-516zM35 812h139v-261h-139v261zM124 855v96h98v-96h-98zM-8 855v96h97v-96h-97z" />
    <glyph glyph-name="Eth" unicode="&#xd0;" horiz-adv-x="397" 
d="M190 105q10 0 17 1t11 6t5.5 14.5t1.5 27.5v365h139v-353q0 -110 -28 -138t-123 -28h-175v405h-26v87h26v27h137v-27h25v-87h-25v-299q3 0 8 -0.5t7 -0.5zM38 812h174q97 0 124 -29q28 -28 28 -136v-96h-139v111q0 31 -7 38t-28 7q-2 0 -7 -0.5t-8 -0.5v-155h-137v261z
" />
    <glyph glyph-name="Ntilde" unicode="&#xd1;" horiz-adv-x="395" 
d="M156 0h-121v518h179l21 -111h6l-1 111h119v-518h-123l-77 416h-6zM35 812h124l49 -261h-173v261zM359 812v-261h-119l-1 261h120zM261 952h65v-29q0 -66 -53 -66q-7 0 -11.5 0.5t-9.5 1.5l-82 13q-1 0 -3.5 0.5t-3.5 0.5q-25 0 -25 -24h-65v30q0 65 53 65q11 0 14.5 -0.5
t6.5 -0.5l82 -14q1 0 3.5 -0.5t3.5 -0.5q25 0 25 24z" />
    <glyph glyph-name="Ograve" unicode="&#xd2;" 
d="M59 22q-28 28 -28 135v359h138v-379q0 -34 23 -34q12 0 16.5 7.5t4.5 26.5v379h139v-359q0 -106 -29 -135q-29 -26 -130 -26q-105 0 -134 26zM169 674v-123h-138v104q0 108 28 135t132 27q105 0 133 -28t28 -134v-104h-139v123q0 35 -23 35q-21 0 -21 -35zM88 954h110
l39 -106h-88z" />
    <glyph glyph-name="Oacute" unicode="&#xd3;" 
d="M59 22q-28 28 -28 135v359h138v-379q0 -34 23 -34q12 0 16.5 7.5t4.5 26.5v379h139v-359q0 -106 -29 -135q-29 -26 -130 -26q-105 0 -134 26zM169 674v-123h-138v104q0 108 28 135t132 27q105 0 133 -28t28 -134v-104h-139v123q0 35 -23 35q-21 0 -21 -35zM186 954h110
l-61 -106h-89z" />
    <glyph glyph-name="Ocircumflex" unicode="&#xd4;" 
d="M59 22q-28 28 -28 135v359h138v-379q0 -34 23 -34q12 0 16.5 7.5t4.5 26.5v379h139v-359q0 -106 -29 -135q-29 -26 -130 -26q-105 0 -134 26zM169 674v-123h-138v104q0 108 28 135t132 27q105 0 133 -28t28 -134v-104h-139v123q0 35 -23 35q-21 0 -21 -35zM131 954h122
l58 -106h-90l-29 46l-29 -46h-90z" />
    <glyph glyph-name="Otilde" unicode="&#xd5;" 
d="M59 22q-28 28 -28 135v359h138v-379q0 -34 23 -34q12 0 16.5 7.5t4.5 26.5v379h139v-359q0 -106 -29 -135q-29 -26 -130 -26q-105 0 -134 26zM169 674v-123h-138v104q0 108 28 135t132 27q105 0 133 -28t28 -134v-104h-139v123q0 35 -23 35q-21 0 -21 -35zM254 952h65
v-29q0 -66 -53 -66q-7 0 -11.5 0.5t-9.5 1.5l-82 13q-1 0 -3.5 0.5t-3.5 0.5q-25 0 -25 -24h-65v30q0 65 53 65q11 0 14.5 -0.5t6.5 -0.5l82 -14q1 0 3.5 -0.5t3.5 -0.5q25 0 25 24z" />
    <glyph glyph-name="Odieresis" unicode="&#xd6;" 
d="M59 22q-28 28 -28 135v359h138v-379q0 -34 23 -34q12 0 16.5 7.5t4.5 26.5v379h139v-359q0 -106 -29 -135q-29 -26 -130 -26q-105 0 -134 26zM169 674v-123h-138v104q0 108 28 135t132 27q105 0 133 -28t28 -134v-104h-139v123q0 35 -23 35q-21 0 -21 -35zM210 855v96h98
v-96h-98zM77 855v96h98v-96h-98z" />
    <glyph glyph-name="multiply" unicode="&#xd7;" horiz-adv-x="833" 
d="M364 298l-219 220h114l162 -162l162 162h115l-219 -220l224 -224l-57 -58l-225 225l-224 -225l-57 58zM197 580l29 -29h-58zM617 551l29 29l29 -29h-58z" />
    <glyph glyph-name="Oslash" unicode="&#xd8;" 
d="M192 102q12 0 16.5 7.5t4.5 27.5v383h139v-363q0 -106 -29 -135q-29 -26 -145 -26q-25 0 -41.5 2t-31.5 5l-17 -54l-57 17l20 71q-11 14 -15.5 35t-4.5 71v377h138v-383q0 -35 23 -35zM283 872l62 -18l-20 -68q7 -7 12 -16t8.5 -24t5 -36.5t1.5 -54.5v-104h-139v124
q0 35 -23 35q-21 0 -21 -35v-124h-138v104q0 108 28 135t132 27q22 0 40.5 -1t34.5 -2z" />
    <glyph glyph-name="Ugrave" unicode="&#xd9;" horiz-adv-x="385" 
d="M60 22q-28 28 -28 134v360h139v-379q0 -35 22 -35q12 0 16.5 7.5t4.5 27.5v379h139v-360q0 -105 -29 -134q-29 -26 -130 -26q-105 0 -134 26zM32 812h139v-261h-139v261zM353 812v-261h-139v261h139zM90 954h110l39 -106h-88z" />
    <glyph glyph-name="Uacute" unicode="&#xda;" horiz-adv-x="385" 
d="M60 22q-28 28 -28 134v360h139v-379q0 -35 22 -35q12 0 16.5 7.5t4.5 27.5v379h139v-360q0 -105 -29 -134q-29 -26 -130 -26q-105 0 -134 26zM32 812h139v-261h-139v261zM353 812v-261h-139v261h139zM188 954h110l-61 -106h-89z" />
    <glyph glyph-name="Ucircumflex" unicode="&#xdb;" horiz-adv-x="385" 
d="M60 22q-28 28 -28 134v360h139v-379q0 -35 22 -35q12 0 16.5 7.5t4.5 27.5v379h139v-360q0 -105 -29 -134q-29 -26 -130 -26q-105 0 -134 26zM32 812h139v-261h-139v261zM353 812v-261h-139v261h139zM133 954h122l58 -106h-90l-29 46l-29 -46h-90z" />
    <glyph glyph-name="Udieresis" unicode="&#xdc;" horiz-adv-x="385" 
d="M60 22q-28 28 -28 134v360h139v-379q0 -35 22 -35q12 0 16.5 7.5t4.5 27.5v379h139v-360q0 -105 -29 -134q-29 -26 -130 -26q-105 0 -134 26zM32 812h139v-261h-139v261zM353 812v-261h-139v261h139zM212 855v96h98v-96h-98zM79 855v96h98v-96h-98z" />
    <glyph glyph-name="Yacute" unicode="&#xdd;" horiz-adv-x="332" 
d="M97 328l-38 189h108l2 -18l2 18h106l-36 -189v-328h-144v328zM0 812h133l30 -261h-111zM333 812l-50 -261h-109l28 261h131zM161 954h110l-61 -106h-89z" />
    <glyph glyph-name="Thorn" unicode="&#xde;" horiz-adv-x="381" 
d="M186 281q9 0 15.5 1t10 6t5 15t1.5 28v187h138v-177q0 -110 -28 -138t-122 -28h-32v-175h-139v518h139v-237h12zM35 812h139v-129h34q93 0 120 -29q24 -24 27 -103h-138q-2 18 -9 22t-24 4h-10v-26h-139v261z" />
    <glyph glyph-name="germandbls" unicode="&#xdf;" horiz-adv-x="340" 
d="M32 0v521h120v-521h-120zM152 688v-134h-120v135q0 75 26 101q29 26 102 26q89 0 121 -23q30 -23 30 -79v-158v-2h-119v152q0 7 -5.5 12.5t-13.5 5.5q-12 0 -16.5 -7.5t-4.5 -28.5zM169 498q20 2 23 23h116q-5 -34 -19 -53t-40 -28q34 -10 48 -36.5t14 -86.5v-192
q0 -75 -26 -101q-26 -24 -96 -24h-20v97q13 1 18 7.5t5 26.5v233q0 9 -6 15t-15 6h-2v113z" />
    <glyph glyph-name="agrave" unicode="&#xe0;" horiz-adv-x="331" 
d="M83 359l100 58v101h120v-518h-120v27q-31 -29 -73 -29q-45 0 -65 29q-19 28 -19 118v113q0 38 12.5 60t44.5 41zM276 640q24 -24 27 -89h-121q-1 22 -18 22q-16 0 -19 -22h-119q1 66 27 90q25 25 111 25q83 0 112 -26zM145 439h-119v79h119v-79zM183 305l-20 -12
q-18 -11 -18 -33v-138q0 -34 20 -34q10 0 14 7t4 27v183zM63 806h110l39 -106h-88z" />
    <glyph glyph-name="aacute" unicode="&#xe1;" horiz-adv-x="331" 
d="M83 359l100 58v101h120v-518h-120v27q-31 -29 -73 -29q-45 0 -65 29q-19 28 -19 118v113q0 38 12.5 60t44.5 41zM276 640q24 -24 27 -89h-121q-1 22 -18 22q-16 0 -19 -22h-119q1 66 27 90q25 25 111 25q83 0 112 -26zM145 439h-119v79h119v-79zM183 305l-20 -12
q-18 -11 -18 -33v-138q0 -34 20 -34q10 0 14 7t4 27v183zM161 806h110l-61 -106h-89z" />
    <glyph glyph-name="acircumflex" unicode="&#xe2;" horiz-adv-x="331" 
d="M83 359l100 58v101h120v-518h-120v27q-31 -29 -73 -29q-45 0 -65 29q-19 28 -19 118v113q0 38 12.5 60t44.5 41zM276 640q24 -24 27 -89h-121q-1 22 -18 22q-16 0 -19 -22h-119q1 66 27 90q25 25 111 25q83 0 112 -26zM145 439h-119v79h119v-79zM183 305l-20 -12
q-18 -11 -18 -33v-138q0 -34 20 -34q10 0 14 7t4 27v183zM106 806h122l58 -106h-90l-29 46l-29 -46h-90z" />
    <glyph glyph-name="atilde" unicode="&#xe3;" horiz-adv-x="331" 
d="M83 359l100 58v101h120v-518h-120v27q-31 -29 -73 -29q-45 0 -65 29q-19 28 -19 118v113q0 38 12.5 60t44.5 41zM276 640q24 -24 27 -89h-121q-1 22 -18 22q-16 0 -19 -22h-119q1 66 27 90q25 25 111 25q83 0 112 -26zM145 439h-119v79h119v-79zM183 305l-20 -12
q-18 -11 -18 -33v-138q0 -34 20 -34q10 0 14 7t4 27v183zM229 804h65v-29q0 -66 -53 -66q-7 0 -11.5 0.5t-9.5 1.5l-82 13q-1 0 -3.5 0.5t-3.5 0.5q-25 0 -25 -24h-65v30q0 65 53 65q11 0 14.5 -0.5t6.5 -0.5l82 -14q1 0 3.5 -0.5t3.5 -0.5q25 0 25 24z" />
    <glyph glyph-name="adieresis" unicode="&#xe4;" horiz-adv-x="331" 
d="M83 359l100 58v101h120v-518h-120v27q-31 -29 -73 -29q-45 0 -65 29q-19 28 -19 118v113q0 38 12.5 60t44.5 41zM276 640q24 -24 27 -89h-121q-1 22 -18 22q-16 0 -19 -22h-119q1 66 27 90q25 25 111 25q83 0 112 -26zM145 439h-119v79h119v-79zM183 305l-20 -12
q-18 -11 -18 -33v-138q0 -34 20 -34q10 0 14 7t4 27v183zM185 707v96h98v-96h-98zM52 707v96h98v-96h-98z" />
    <glyph glyph-name="aring" unicode="&#xe5;" horiz-adv-x="331" 
d="M83 359l100 58v103h120v-520h-120v27q-31 -29 -73 -29q-45 0 -65 29q-19 28 -19 118v113q0 38 12.5 60t44.5 41zM222 857q28 0 38.5 -11t10.5 -38v-58q0 -28 -10.5 -39t-38.5 -11h-116q-27 0 -38 11.5t-11 38.5v58q0 49 36 49h129zM276 640q24 -24 27 -89h-121
q-1 22 -18 22q-16 0 -19 -22h-119q1 66 27 90q25 25 111 25q83 0 112 -26zM145 439h-119v81h119v-81zM183 305l-20 -12q-18 -11 -18 -33v-138q0 -34 20 -34q10 0 14 7t4 27v183zM129 801q-12 0 -12 -23q0 -21 12 -21h71q12 0 12 22t-12 22h-71z" />
    <glyph glyph-name="ae" unicode="&#xe6;" horiz-adv-x="485" 
d="M303 403h37v115h119v-207h-156v-189q0 -19 4 -26.5t14 -7.5q11 0 15 7t4 27v123h119v-122q0 -74 -27 -99q-28 -25 -103 -25q-24 0 -41 2t-29.5 7.5t-21.5 14t-17 22.5q-20 -26 -42 -37t-52 -11q-55 0 -78 26q-22 28 -22 121v114q0 39 13 61.5t44 39.5l100 55v104h120
v-115zM322 573q-8 0 -12.5 -4t-6.5 -17h-121q-3 21 -18 21q-16 0 -19 -21h-119q2 65 27 89q25 25 106 25q30 0 49 -6t35 -19q14 14 32 19.5t52 5.5q76 0 105 -26q24 -24 27 -88h-119v1q0 20 -18 20zM145 439h-119v79h119v-79zM183 305l-20 -12q-18 -11 -18 -33v-138
q0 -34 20 -34q10 0 14 7t4 27v183z" />
    <glyph glyph-name="ccedilla" unicode="&#xe7;" horiz-adv-x="328" 
d="M52 21q-26 26 -26 102v398h119v-399q0 -19 4.5 -26.5t14.5 -7.5t14.5 7t4.5 27v162h120v-161q0 -77 -27 -102q-28 -23 -114 -23q-82 0 -110 23zM276 640q24 -24 27 -89h-121q-1 22 -18 22q-10 0 -14 -4.5t-5 -17.5h-119q1 66 27 90q25 25 111 25q83 0 112 -26zM303 392
h-120v129h120v-129zM155 0h55q29 -38 29 -70q0 -39 -24.5 -57.5t-78.5 -18.5q-7 0 -22 1t-23 2v72h43q34 0 34 30q0 16 -13 41z" />
    <glyph glyph-name="egrave" unicode="&#xe8;" horiz-adv-x="328" 
d="M145 403h38v117h120v-209h-158v-189q0 -19 4.5 -26.5t14.5 -7.5t14.5 7t4.5 27v123h120v-122q0 -77 -27 -102q-28 -23 -114 -23q-82 0 -110 23q-26 26 -26 102v397h119v-117zM165 573q-10 0 -14.5 -4.5t-5.5 -17.5h-119q1 66 27 90q25 25 111 25q83 0 112 -26
q24 -24 27 -89h-121q-1 22 -17 22zM61 806h110l39 -106h-88z" />
    <glyph glyph-name="eacute" unicode="&#xe9;" horiz-adv-x="328" 
d="M145 403h38v117h120v-209h-158v-189q0 -19 4.5 -26.5t14.5 -7.5t14.5 7t4.5 27v123h120v-122q0 -77 -27 -102q-28 -23 -114 -23q-82 0 -110 23q-26 26 -26 102v397h119v-117zM165 573q-10 0 -14.5 -4.5t-5.5 -17.5h-119q1 66 27 90q25 25 111 25q83 0 112 -26
q24 -24 27 -89h-121q-1 22 -17 22zM159 806h110l-61 -106h-89z" />
    <glyph glyph-name="ecircumflex" unicode="&#xea;" horiz-adv-x="328" 
d="M145 403h38v117h120v-209h-158v-189q0 -19 4.5 -26.5t14.5 -7.5t14.5 7t4.5 27v123h120v-122q0 -77 -27 -102q-28 -23 -114 -23q-82 0 -110 23q-26 26 -26 102v397h119v-117zM165 573q-10 0 -14.5 -4.5t-5.5 -17.5h-119q1 66 27 90q25 25 111 25q83 0 112 -26
q24 -24 27 -89h-121q-1 22 -17 22zM104 806h122l58 -106h-90l-29 46l-29 -46h-90z" />
    <glyph glyph-name="edieresis" unicode="&#xeb;" horiz-adv-x="328" 
d="M145 403h38v117h120v-209h-158v-189q0 -19 4.5 -26.5t14.5 -7.5t14.5 7t4.5 27v123h120v-122q0 -77 -27 -102q-28 -23 -114 -23q-82 0 -110 23q-26 26 -26 102v397h119v-117zM165 573q-10 0 -14.5 -4.5t-5.5 -17.5h-119q1 66 27 90q25 25 111 25q83 0 112 -26
q24 -24 27 -89h-121q-1 22 -17 22zM183 707v96h98v-96h-98zM50 707v96h98v-96h-98z" />
    <glyph glyph-name="igrave" unicode="&#xec;" horiz-adv-x="185" 
d="M152 0h-119v518h119v-518zM33 662h119v-111h-119v111zM-9 806h109l39 -106h-88z" />
    <glyph glyph-name="iacute" unicode="&#xed;" horiz-adv-x="185" 
d="M152 0h-119v518h119v-518zM33 662h119v-111h-119v111zM88 806h110l-61 -106h-89z" />
    <glyph glyph-name="icircumflex" unicode="&#xee;" horiz-adv-x="185" 
d="M152 0h-119v518h119v-518zM33 662h119v-111h-119v111zM33 806h122l58 -106h-90l-29 46l-29 -46h-89z" />
    <glyph glyph-name="idieresis" unicode="&#xef;" horiz-adv-x="185" 
d="M152 0h-119v518h119v-518zM33 662h119v-111h-119v111zM112 707v96h98v-96h-98zM-20 707v96h97v-96h-97z" />
    <glyph glyph-name="eth" unicode="&#xf0;" horiz-adv-x="328" 
d="M183 495q0 13 -3 21h120q3 -21 3 -42v-355q0 -74 -27 -98q-28 -23 -114 -23q-82 0 -110 23q-26 24 -26 98v375v22h121q-2 -6 -2 -21v-376q0 -18 4.5 -25t15.5 -7q10 0 14 6t4 26v376zM52 814h120l24 -46l62 17l28 -58l-59 -16q44 -84 60 -136q2 -6 3.5 -12t3.5 -12h-263
q8 35 29 50t57 15q11 0 22.5 -2t25.5 -7q-8 19 -17 38t-20 38l-62 -17l-28 57l57 15z" />
    <glyph glyph-name="ntilde" unicode="&#xf1;" horiz-adv-x="342" 
d="M152 0h-119v521h119v-521zM309 511v-511h-119v521h119v-10zM289 634q15 -24 19 -83h-119q-4 16 -18 16q-15 0 -18 -16h-120v110h119v-27q32 32 68 32q49 0 69 -32zM234 804h65v-29q0 -66 -53 -66q-7 0 -11.5 0.5t-9.5 1.5l-82 13q-1 0 -3.5 0.5t-3.5 0.5q-25 0 -25 -24
h-65v30q0 65 53 65q11 0 14.5 -0.5t6.5 -0.5l82 -14q1 0 3.5 -0.5t3.5 -0.5q25 0 25 24z" />
    <glyph glyph-name="ograve" unicode="&#xf2;" horiz-adv-x="328" 
d="M165 88q10 0 14 6.5t4 27.5v398h120v-397q0 -77 -27 -102q-28 -23 -114 -23q-82 0 -110 23q-26 26 -26 102v397h119v-398q0 -34 20 -34zM165 573q-10 0 -14.5 -4.5t-5.5 -17.5h-119q1 66 27 90q25 25 111 25q83 0 112 -26q24 -24 27 -89h-121q-1 22 -17 22zM61 806h110
l39 -106h-88z" />
    <glyph glyph-name="oacute" unicode="&#xf3;" horiz-adv-x="328" 
d="M165 88q10 0 14 6.5t4 27.5v398h120v-397q0 -77 -27 -102q-28 -23 -114 -23q-82 0 -110 23q-26 26 -26 102v397h119v-398q0 -34 20 -34zM165 573q-10 0 -14.5 -4.5t-5.5 -17.5h-119q1 66 27 90q25 25 111 25q83 0 112 -26q24 -24 27 -89h-121q-1 22 -17 22zM159 806h110
l-61 -106h-89z" />
    <glyph glyph-name="ocircumflex" unicode="&#xf4;" horiz-adv-x="328" 
d="M165 88q10 0 14 6.5t4 27.5v398h120v-397q0 -77 -27 -102q-28 -23 -114 -23q-82 0 -110 23q-26 26 -26 102v397h119v-398q0 -34 20 -34zM165 573q-10 0 -14.5 -4.5t-5.5 -17.5h-119q1 66 27 90q25 25 111 25q83 0 112 -26q24 -24 27 -89h-121q-1 22 -17 22zM104 806h122
l58 -106h-90l-29 46l-29 -46h-90z" />
    <glyph glyph-name="otilde" unicode="&#xf5;" horiz-adv-x="328" 
d="M165 88q10 0 14 6.5t4 27.5v398h120v-397q0 -77 -27 -102q-28 -23 -114 -23q-82 0 -110 23q-26 26 -26 102v397h119v-398q0 -34 20 -34zM165 573q-10 0 -14.5 -4.5t-5.5 -17.5h-119q1 66 27 90q25 25 111 25q83 0 112 -26q24 -24 27 -89h-121q-1 22 -17 22zM227 804h65
v-29q0 -66 -53 -66q-7 0 -11.5 0.5t-9.5 1.5l-82 13q-1 0 -3.5 0.5t-3.5 0.5q-25 0 -25 -24h-65v30q0 65 53 65q11 0 14.5 -0.5t6.5 -0.5l82 -14q1 0 3.5 -0.5t3.5 -0.5q25 0 25 24z" />
    <glyph glyph-name="odieresis" unicode="&#xf6;" horiz-adv-x="328" 
d="M165 88q10 0 14 6.5t4 27.5v398h120v-397q0 -77 -27 -102q-28 -23 -114 -23q-82 0 -110 23q-26 26 -26 102v397h119v-398q0 -34 20 -34zM165 573q-10 0 -14.5 -4.5t-5.5 -17.5h-119q1 66 27 90q25 25 111 25q83 0 112 -26q24 -24 27 -89h-121q-1 22 -17 22zM183 707v96
h98v-96h-98zM50 707v96h98v-96h-98z" />
    <glyph glyph-name="divide" unicode="&#xf7;" horiz-adv-x="833" 
d="M124 339h585v-81h-585v81zM350 483q0 21 11 38h111q5 -8 8.5 -17.5t3.5 -20.5q0 -27 -19.5 -46.5t-47.5 -19.5t-47.5 19t-19.5 47zM417 179q28 0 47.5 -19.5t19.5 -47.5q0 -19 -10 -35h-114q-10 13 -10 35q0 28 20 47.5t47 19.5z" />
    <glyph glyph-name="oslash" unicode="&#xf8;" horiz-adv-x="328" 
d="M165 88q10 0 14 6.5t4 27.5v395h120v-393q0 -76 -27 -101q-26 -24 -101 -24q-29 0 -49 0.5t-37 4.5l-17 -52l-48 15l20 65q-10 10 -14 26t-4 54v405h119v-395q0 -34 20 -34zM256 712l48 -15l-20 -67q9 -8 13.5 -24t5.5 -55h-121q-1 22 -17 22q-10 0 -14.5 -4.5
t-5.5 -17.5h-119q2 65 27 89q29 26 102 26q31 0 49.5 -1.5t35.5 -5.5z" />
    <glyph glyph-name="ugrave" unicode="&#xf9;" horiz-adv-x="342" 
d="M53 29q-20 32 -20 123v366h119v-391q0 -18 4.5 -25t14.5 -7q11 0 15 7t4 25v391h119v-518h-119v28q-14 -15 -32 -22t-36 -7q-50 0 -69 30zM33 662h119v-111h-119v111zM309 662v-111h-119v111h119zM68 806h110l39 -106h-88z" />
    <glyph glyph-name="uacute" unicode="&#xfa;" horiz-adv-x="342" 
d="M53 29q-20 32 -20 123v366h119v-391q0 -18 4.5 -25t14.5 -7q11 0 15 7t4 25v391h119v-518h-119v28q-14 -15 -32 -22t-36 -7q-50 0 -69 30zM33 662h119v-111h-119v111zM309 662v-111h-119v111h119zM166 806h110l-61 -106h-89z" />
    <glyph glyph-name="ucircumflex" unicode="&#xfb;" horiz-adv-x="342" 
d="M53 29q-20 32 -20 123v366h119v-391q0 -18 4.5 -25t14.5 -7q11 0 15 7t4 25v391h119v-518h-119v28q-14 -15 -32 -22t-36 -7q-50 0 -69 30zM33 662h119v-111h-119v111zM309 662v-111h-119v111h119zM111 806h122l58 -106h-90l-29 46l-29 -46h-90z" />
    <glyph glyph-name="udieresis" unicode="&#xfc;" horiz-adv-x="342" 
d="M53 29q-20 32 -20 123v366h119v-391q0 -18 4.5 -25t14.5 -7q11 0 15 7t4 25v391h119v-518h-119v28q-14 -15 -32 -22t-36 -7q-50 0 -69 30zM33 662h119v-111h-119v111zM309 662v-111h-119v111h119zM190 707v96h98v-96h-98zM57 707v96h98v-96h-98z" />
    <glyph glyph-name="yacute" unicode="&#xfd;" horiz-adv-x="303" 
d="M217 -21q-9 -85 -35 -108q-26 -24 -88 -24h-106v92h65q21 0 29 6t8 21q0 2 -0.5 6.5t-0.5 6.5l-62 538h105l17 -288h7l16 288h105zM294 662l-13 -111h-107l6 111h114zM10 662h114l6 -111h-107zM147 806h110l-61 -106h-89z" />
    <glyph glyph-name="thorn" unicode="&#xfe;" horiz-adv-x="335" 
d="M171 96q19 0 19 32v393h119v-10v-359q0 -45 -5 -74.5t-15.5 -47.5t-27 -25t-38.5 -7q-41 0 -71 30v-181h-119v674h119v-393q0 -18 4.5 -25t14.5 -7zM33 812h119v-178q32 32 68 32q49 0 69 -32q15 -24 19 -83h-120q-2 15 -16 15q-15 0 -19 -15h-120v261z" />
    <glyph glyph-name="ydieresis" unicode="&#xff;" horiz-adv-x="303" 
d="M217 -21q-9 -85 -35 -108q-26 -24 -88 -24h-106v92h65q21 0 29 6t8 21q0 2 -0.5 6.5t-0.5 6.5l-62 538h105l17 -288h7l16 288h105zM294 662l-13 -111h-107l6 111h114zM10 662h114l6 -111h-107zM171 707v96h98v-96h-98zM38 707v96h98v-96h-98z" />
    <glyph glyph-name="OE" unicode="&#x152;" horiz-adv-x="465" 
d="M198 103q2 0 6.5 0.5t7.5 0.5v417h136v-22h83v-107h-83v-285h83v-107h-238q-108 0 -135 27q-27 28 -27 133v361h138v-383q0 -21 6 -28t23 -7zM195 812h236v-106h-83v-155h-136v156h-12q-19 0 -25 -6.5t-6 -27.5v-122h-138v101q0 107 27 133q27 27 137 27z" />
    <glyph glyph-name="oe" unicode="&#x153;" horiz-adv-x="485" 
d="M53 21q-27 25 -27 102v295h119v-296q0 -34 20 -34q10 0 14 6.5t4 27.5v296h120v-15h37v15h120v-107h-157v-189q0 -20 4.5 -27t14.5 -7t14 7t4 27v123h120v-122q0 -76 -27 -101q-26 -24 -98 -24q-35 0 -56 5.5t-36 20.5q-16 -15 -35.5 -20.5t-46.5 -5.5q-80 0 -108 23z
M183 540q0 18 -4 25.5t-14 7.5q-11 0 -15.5 -6.5t-4.5 -26.5v-88h-119v86q0 76 26 102q29 26 99 26q35 0 55 -6.5t37 -22.5q29 29 85 29q75 0 104 -26q28 -25 28 -102v-86h-120v101q0 20 -18 20q-10 0 -14.5 -6t-4.5 -27v-88h-120v88z" />
    <glyph glyph-name="Scaron" unicode="&#x160;" horiz-adv-x="381" 
d="M92 412q-30 18 -45 41t-18 65h146q3 -6 9.5 -11t15.5 -10l85 -49q35 -20 50 -47t15 -76v-169q0 -109 -29 -135q-28 -25 -132 -25q-102 0 -131 26q-29 29 -29 134v179h140v-198q0 -35 23 -35q20 0 20 35v172q0 22 -6 31t-25 20zM350 655v-104h-138v124q0 34 -23 34
q-11 0 -15.5 -7.5t-4.5 -26.5v-124h-140v104q0 105 28 133q29 29 133 29q102 0 131 -27t29 -135zM73 954h90l29 -46l29 46h90l-58 -106h-122z" />
    <glyph glyph-name="scaron" unicode="&#x161;" horiz-adv-x="327" 
d="M25 243h120v-123q0 -32 18 -32q10 0 14.5 6.5t4.5 25.5v117q0 23 -8.5 33t-29.5 22l-56 30q-17 10 -29.5 20t-19.5 21q-14 23 -14 79v76h120v-65q0 -35 38 -56q3 -2 5 -3l4 -2l59 -34q14 -8 23.5 -17t15.5 -21t9 -29.5t3 -41.5v-103q0 -101 -26 -125q-26 -23 -115 -23
q-85 0 -111 23q-25 25 -25 125v97zM163 574q-17 0 -18 -22h-120q4 64 27 87q27 27 118 27q82 0 107 -25q10 -11 16 -32.5t8 -56.5h-120q-1 22 -18 22zM302 440h-120v78h120v-2v-76zM46 806h90l29 -46l29 46h90l-58 -106h-122z" />
    <glyph glyph-name="Ydieresis" unicode="&#x178;" horiz-adv-x="332" 
d="M97 328l-38 189h108l2 -18l2 18h106l-36 -189v-328h-144v328zM0 812h133l30 -261h-111zM333 812l-50 -261h-109l28 261h131zM185 855v96h98v-96h-98zM52 855v96h98v-96h-98z" />
    <glyph glyph-name="florin" unicode="&#x192;" 
d="M44 500h77v21h134v-21h81v-106h-81v-363q0 -106 -40 -145q-39 -39 -147 -39h-26v108h30q30 0 39 13q10 10 10 60v366h-77v106zM336 814v-107h-30q-31 0 -41 -15q-10 -13 -10 -75v-63h-134v77q0 103 38 144q39 41 132 41h9z" />
    <glyph glyph-name="circumflex" unicode="&#x2c6;" horiz-adv-x="500" 
d="M189 806h122l58 -106h-90l-29 46l-29 -46h-90z" />
    <glyph glyph-name="tilde" unicode="&#x2dc;" horiz-adv-x="500" 
d="M312 804h65v-29q0 -66 -53 -66q-7 0 -11.5 0.5t-9.5 1.5l-82 13q-1 0 -3.5 0.5t-3.5 0.5q-25 0 -25 -24h-65v30q0 65 53 65q11 0 14.5 -0.5t6.5 -0.5l82 -14q1 0 3.5 -0.5t3.5 -0.5q25 0 25 24z" />
    <glyph glyph-name="endash" unicode="&#x2013;" horiz-adv-x="500" 
d="M0 377h500v-87h-500v87z" />
    <glyph glyph-name="emdash" unicode="&#x2014;" horiz-adv-x="1000" 
d="M0 377h1000v-87h-1000v87z" />
    <glyph glyph-name="quoteleft" unicode="&#x2018;" horiz-adv-x="191" 
d="M153 816v-66q-28 -2 -38.5 -14t-10.5 -41v-18h49v-126h-115v135q0 69 26 98.5t89 31.5z" />
    <glyph glyph-name="quoteright" unicode="&#x2019;" horiz-adv-x="191" 
d="M38 812h115v-152q0 -80 -38 -109h-77v46q27 3 38 15t11 40v18h-49v142z" />
    <glyph glyph-name="quotesinglbase" unicode="&#x201a;" horiz-adv-x="191" 
d="M38 143h115v-150q0 -69 -26 -99t-89 -31v66q27 2 38 14.5t11 40.5v16h-49v143z" />
    <glyph glyph-name="quotedblleft" unicode="&#x201c;" horiz-adv-x="354" 
d="M316 816v-66q-27 -2 -38 -14t-11 -41v-18h49v-126h-115v135q0 69 26 98.5t89 31.5zM153 816v-66q-28 -2 -38.5 -14t-10.5 -41v-18h49v-126h-115v135q0 69 26 98.5t89 31.5z" />
    <glyph glyph-name="quotedblright" unicode="&#x201d;" horiz-adv-x="354" 
d="M201 812h115v-152q0 -42 -9 -68.5t-29 -40.5h-77v46q28 3 38.5 15t10.5 40v18h-49v142zM38 812h115v-152q0 -80 -38 -109h-77v46q27 3 38 15t11 40v18h-49v142z" />
    <glyph glyph-name="quotedblbase" unicode="&#x201e;" horiz-adv-x="354" 
d="M201 143h115v-151q0 -69 -26.5 -98.5t-88.5 -30.5v66q27 2 38 14.5t11 40.5v16h-49v143zM38 143h115v-151q0 -69 -26.5 -98.5t-88.5 -30.5v66q27 2 38 14.5t11 40.5v16h-49v143z" />
    <glyph glyph-name="dagger" unicode="&#x2020;" horiz-adv-x="360" 
d="M116 501h-101v17h331v-17h-103v-592h-127v592zM116 812h127v-204h103v-57h-331v57h101v204z" />
    <glyph glyph-name="daggerdbl" unicode="&#x2021;" horiz-adv-x="360" 
d="M116 505h-102v13h332v-13h-103v-291h103v-107h-103v-198h-127v198h-102v107h102v291zM116 812h127v-200h103v-61h-332v61h102v200z" />
    <glyph glyph-name="bullet" unicode="&#x2022;" horiz-adv-x="590" 
d="M150 372q0 60 42 102q43 42 103 42q59 0 101 -42q43 -42 43 -102q0 -59 -43 -102q-42 -43 -102 -43t-102 42q-42 43 -42 103z" />
    <glyph glyph-name="ellipsis" unicode="&#x2026;" horiz-adv-x="1000" 
d="M141 224h116v-143h-116v143zM454 222h116v-143h-116v143zM751 224h116v-143h-116v143z" />
    <glyph glyph-name="perthousand" unicode="&#x2030;" horiz-adv-x="949" 
d="M118 714v-158h-97v149q0 77 21 97q19 19 96 19q76 0 96 -20q21 -20 21 -96v-149h-97v158q0 23 -21 23q-19 0 -19 -23zM414 21q-21 19 -21 97v147h97v-158q0 -23 20 -23t20 23v158h97v-147q0 -78 -21 -97q-19 -19 -96 -19t-96 19zM235 2h-80l163 519h80zM118 485
q0 -23 20 -23t20 23v36h97v-25q0 -78 -21 -97q-23 -20 -96 -20q-74 0 -96 19q-21 19 -21 98v25h97v-36zM490 336v-31h-97v22q0 77 21 97q19 19 96 19q76 0 96 -21q21 -20 21 -95v-22h-97v31q0 24 -21 24q-19 0 -19 -24zM493 821l-84 -265h-80l84 265h80zM708 21
q-21 19 -21 97v147h97v-158q0 -23 20 -23t20 23v158h97v-147q0 -78 -21 -97q-19 -19 -96 -19t-96 19zM784 336v-31h-97v22q0 77 21 97q19 19 96 19q76 0 96 -21q21 -20 21 -95v-22h-97v31q0 24 -21 24q-19 0 -19 -24z" />
    <glyph glyph-name="guilsinglleft" unicode="&#x2039;" horiz-adv-x="179" 
d="M70 51l-44 281l29 186h87l-29 -186l44 -281h-87zM70 611h87l-9 -59h-87z" />
    <glyph glyph-name="guilsinglright" unicode="&#x203a;" horiz-adv-x="179" 
d="M66 333l-30 188h87l30 -188l-44 -282h-87zM22 611h87l9 -57h-87z" />
    <glyph glyph-name="currency" unicode="&#x20ac;" horiz-adv-x="451" 
d="M324 365v81h-81v29h81v44h-310v-44h91v-29h-90v-81h90v-208q0 -107 28 -135q29 -26 134 -26q101 0 130 26q29 29 29 135v187h-139v-207q0 -19 -4.5 -26.5t-16.5 -7.5q-23 0 -23 34v228h81zM426 655q0 106 -28 134t-133 28q-104 0 -132 -27t-28 -135v-104h138v123
q0 35 21 35q23 0 23 -35v-123h139v104z" />
    <glyph glyph-name="trademark" unicode="&#x2122;" horiz-adv-x="833" 
d="M110 713h228v-46h-82v-116h-63v116h-83v46zM395 713h83l63 -162h-49l-41 106v-106h-56v162zM639 657l-40 -106h-47l60 162h83v-162h-56v106zM256 448h-63v72h63v-72zM532 448l-28 72h84l-27 -72h-29zM451 448h-56v72h56v-72zM695 448h-56v72h56v-72z" />
  </font>
</defs>
</svg>
