<?xml version="1.0" standalone="no"?>
<!DOCTYPE svg PUBLIC "-//W3C//DTD SVG 1.1//EN" "http://www.w3.org/Graphics/SVG/1.1/DTD/svg11.dtd" >
<svg xmlns="http://www.w3.org/2000/svg" xmlns:xlink="http://www.w3.org/1999/xlink" version="1.1">
<metadata>
Created by FontForge 20170731 at Sat Feb 22 10:19:41 2020
 By Aleksey,,,
Copyright (c) 2020, Foyezes
</metadata>
<defs>
<font id="Excluded" horiz-adv-x="800" >
  <font-face 
    font-family="Excluded"
    font-weight="400"
    font-stretch="normal"
    units-per-em="1000"
    panose-1="2 0 5 3 0 0 0 0 0 0"
    ascent="800"
    descent="-200"
    x-height="550"
    cap-height="550"
    bbox="17 -98 1018 666"
    underline-thickness="50"
    underline-position="-150"
    unicode-range="U+0006-00A3"
  />
<missing-glyph horiz-adv-x="364" 
d="M33 0v666h265v-666h-265zM66 33h199v600h-199v-600z" />
    <glyph glyph-name=".notdef" horiz-adv-x="364" 
d="M33 0v666h265v-666h-265zM66 33h199v600h-199v-600z" />
    <glyph glyph-name=".null" horiz-adv-x="0" 
 />
    <glyph glyph-name="uni000D" unicode="&#xd;" horiz-adv-x="1000" 
 />
    <glyph glyph-name="uni0006" horiz-adv-x="1000" 
 />
    <glyph glyph-name="uni0007" horiz-adv-x="1000" 
 />
    <glyph glyph-name="uni0009" unicode="&#x9;" horiz-adv-x="1000" 
 />
    <glyph glyph-name="uni000C" horiz-adv-x="1000" 
 />
    <glyph glyph-name="uni000E" horiz-adv-x="1000" 
 />
    <glyph glyph-name="uni0010" horiz-adv-x="1000" 
 />
    <glyph glyph-name="uni0011" horiz-adv-x="1000" 
 />
    <glyph glyph-name="uni0012" horiz-adv-x="1000" 
 />
    <glyph glyph-name="uni0013" horiz-adv-x="1000" 
 />
    <glyph glyph-name="uni0014" horiz-adv-x="1000" 
 />
    <glyph glyph-name="uni0015" horiz-adv-x="1000" 
 />
    <glyph glyph-name="uni0016" horiz-adv-x="1000" 
 />
    <glyph glyph-name="uni0017" horiz-adv-x="1000" 
 />
    <glyph glyph-name="uni0018" horiz-adv-x="1000" 
 />
    <glyph glyph-name="uni0019" horiz-adv-x="1000" 
 />
    <glyph glyph-name="uni001A" horiz-adv-x="1000" 
 />
    <glyph glyph-name="uni001B" horiz-adv-x="1000" 
 />
    <glyph glyph-name="uni001C" horiz-adv-x="1000" 
 />
    <glyph glyph-name="uni001D" horiz-adv-x="1000" 
 />
    <glyph glyph-name="uni001E" horiz-adv-x="1000" 
 />
    <glyph glyph-name="uni001F" horiz-adv-x="1000" 
 />
    <glyph glyph-name="space" unicode=" " horiz-adv-x="200" 
 />
    <glyph glyph-name="exclam" unicode="!" horiz-adv-x="252" 
d="M217 550v-348h-183v348h183zM217 147v-147h-183v147h183z" />
    <glyph glyph-name="quotedbl" unicode="&#x22;" horiz-adv-x="190" 
d="M105 394v156h67v-50l-30 -106h-37zM84 394h-36l-31 106v50h67v-156z" />
    <glyph glyph-name="numbersign" unicode="#" horiz-adv-x="606" 
d="M561 325h-100l-16 -99h101l-16 -99h-100l-20 -127h-101l21 127h-100l-21 -127h-100l20 127h-100l16 99h100l16 99h-100l15 99h101l20 127h100l-20 -127h100l20 127h100l-20 -127h100zM345 226l16 99h-100l-16 -99h100z" />
    <glyph glyph-name="dollar" unicode="$" horiz-adv-x="648" 
d="M243 403v-55h366v-238q0 -46 -32 -78t-78 -32h-73v-73h-183v73h-184v147h367v55h-367v238q0 46 32.5 78t77.5 32h74v73h183v-73h183v-147h-366z" />
    <glyph glyph-name="percent" unicode="%" horiz-adv-x="1000" 
 />
    <glyph glyph-name="ampersand" unicode="&#x26;" horiz-adv-x="1000" 
 />
    <glyph glyph-name="quotesingle" unicode="'" horiz-adv-x="115" 
d="M98 550v-50l-23 -106h-36l-22 106v50h81z" />
    <glyph glyph-name="parenleft" unicode="(" horiz-adv-x="334" 
d="M226 393v-236h79v-157h-158q-49 0 -83.5 34.5t-34.5 83.5v315q0 49 34.5 83.5t83.5 34.5h158v-158h-79z" />
    <glyph glyph-name="parenright" unicode=")" horiz-adv-x="330" 
d="M305 433v-315q0 -49 -34.5 -83.5t-83.5 -34.5h-145h-12v157h79v236h-79v158h157q49 0 83.5 -34.5t34.5 -83.5z" />
    <glyph glyph-name="asterisk" unicode="*" horiz-adv-x="1000" 
 />
    <glyph glyph-name="plus" unicode="+" horiz-adv-x="360" 
d="M32 251v98h296v-98h-296zM131 448h98v-296h-98v296z" />
    <glyph glyph-name="comma" unicode="," horiz-adv-x="290" 
d="M254 130l-76 -228h-147l76 228h147z" />
    <glyph glyph-name="hyphen" unicode="-" horiz-adv-x="360" 
d="M32 251v98h296v-98h-296z" />
    <glyph glyph-name="period" unicode="." horiz-adv-x="200" 
d="M25 0v147h147v-147h-147z" />
    <glyph glyph-name="slash" unicode="/" horiz-adv-x="600" 
d="M551 551l-318 -551h-184l318 551h184z" />
    <glyph glyph-name="zero" unicode="0" horiz-adv-x="630" 
d="M479 550q45 0 77.5 -32t32.5 -78v-330q0 -46 -32.5 -78t-77.5 -32h-330q-46 0 -78 32t-32 78v330q0 46 32 78t78 32h330zM406 147v256h-184v-256h184z" />
    <glyph glyph-name="one" unicode="1" horiz-adv-x="430" 
d="M378 550v-550h-183v403h-147v147h330z" />
    <glyph glyph-name="two" unicode="2" horiz-adv-x="680" 
d="M614 550v-238q0 -46 -32.5 -78t-77.5 -32h-257v-55h367v-147h-550v238q0 46 32 78t78 32h257v55h-367v147h550z" />
    <glyph glyph-name="three" unicode="3" horiz-adv-x="680" 
d="M615 440v-330q0 -46 -32 -78t-78 -32h-440v147h367v55h-367v146h367v55h-367v147h440q46 0 78 -32t32 -78zM65 157z" />
    <glyph glyph-name="four" unicode="4" horiz-adv-x="680" 
d="M612 550v-550h-183v202h-257q-46 0 -78 32t-32 78v238h183v-202h184v202h183z" />
    <glyph glyph-name="five" unicode="5" horiz-adv-x="680" 
d="M248 403v-55h257q46 0 78 -32t32 -78v-238h-550v147h367v55h-257q-46 0 -78 32t-32 78v238h550v-147h-367z" />
    <glyph glyph-name="six" unicode="6" horiz-adv-x="680" 
d="M615 403h-367v-55h367v-348h-440q-46 0 -78 32t-32 78v440h550v-147zM432 202h-184v-55h184v55z" />
    <glyph glyph-name="seven" unicode="7" horiz-adv-x="680" 
d="M615 440v-440h-183v403h-367v147h440q45 0 77.5 -32t32.5 -78z" />
    <glyph glyph-name="eight" unicode="8" horiz-adv-x="680" 
d="M507 550q46 0 78 -32t32 -78v-113q0 -16 -10.5 -31.5t-26.5 -20.5q16 -5 26.5 -20.5t10.5 -31.5v-113q0 -46 -32 -78t-78 -32h-330q-46 0 -78 32t-32 78v113q0 16 10.5 31.5t26.5 20.5q-16 5 -26.5 20.5t-10.5 31.5v113q0 46 32 78t78 32h330zM434 147v55h-184v-55h184z
M434 348v55h-184v-55h184z" />
    <glyph glyph-name="nine" unicode="9" horiz-adv-x="680" 
d="M505 550q45 0 77.5 -32t32.5 -78v-440h-550v147h367v55h-367v238q0 46 32 78t78 32h330zM432 348v55h-184v-55h184z" />
    <glyph glyph-name="colon" unicode=":" horiz-adv-x="250" 
d="M51 301v146h146v-146h-146zM51 99v147h146v-147h-146z" />
    <glyph glyph-name="semicolon" unicode=";" horiz-adv-x="350" 
d="M139 303v147h146v-147h-146zM285 248l-76 -228h-146l76 228h146z" />
    <glyph glyph-name="less" unicode="&#x3c;" horiz-adv-x="1000" 
 />
    <glyph glyph-name="equal" unicode="=" horiz-adv-x="455" 
d="M30 102v99h395v-99h-395zM30 256v99h395v-99h-395z" />
    <glyph glyph-name="greater" unicode="&#x3e;" horiz-adv-x="1000" 
 />
    <glyph glyph-name="question" unicode="?" horiz-adv-x="440" 
d="M237 147v-147h-183v147h183zM384 376q0 -72 -51 -123t-123 -51h-156v146h156q11 0 19 8.5t8 19.5t-8 19t-19 8h-156v147h156q72 0 123 -51t51 -123z" />
    <glyph glyph-name="at" unicode="@" horiz-adv-x="640" 
d="M438 236h157v-197q0 -16 -11.5 -27.5t-27.5 -11.5h-472q-16 0 -27.5 11.5t-11.5 27.5v472q0 17 11.5 28.5t27.5 11.5h472q16 0 27.5 -11.5t11.5 -28.5v-196h-78v157h-394v-393h394v78h-315v236h236v-157zM359 236v79h-78v-79h78z" />
    <glyph glyph-name="A" unicode="A" 
d="M617 550q45 0 77.5 -32t32.5 -78v-440h-184v183h-293v-183h-183v440q0 46 32 78t78 32h440zM543 330v73h-293v-73h293z" />
    <glyph glyph-name="B" unicode="B" 
d="M620 550q46 0 78 -32t32 -78v-113q0 -16 -10.5 -31.5t-26.5 -20.5q16 -5 26.5 -20.5t10.5 -31.5v-113q0 -46 -32 -78t-78 -32h-550v550h550zM547 147v55h-294v-55h294zM547 348v55h-294v-55h294z" />
    <glyph glyph-name="C" unicode="C" 
d="M253 403v-256h477v-147h-550q-46 0 -78 32t-32 78v330q0 46 32 78t78 32h550v-147h-477z" />
    <glyph glyph-name="D" unicode="D" 
d="M620 550q46 0 78 -32t32 -78v-330q0 -46 -32 -78t-78 -32h-550v550h550zM547 147v256h-294v-256h294z" />
    <glyph glyph-name="E" unicode="E" 
d="M253 403v-55h395v-146h-395v-55h477v-147h-550q-46 0 -78 32t-32 78v330q0 46 32 78t78 32h550v-147h-477z" />
    <glyph glyph-name="F" unicode="F" 
d="M253 403v-73h404v-147h-404v-183h-183v440q0 46 32 78t78 32h550v-147h-477z" />
    <glyph glyph-name="G" unicode="G" 
d="M253 403v-256h294v55h-239v146h422v-348h-550q-46 0 -78 32t-32 78v330q0 46 32 78t78 32h550v-147h-477z" />
    <glyph glyph-name="H" unicode="H" 
d="M730 550v-550h-183v202h-294v-202h-183v550h183v-202h294v202h183z" />
    <glyph glyph-name="I" unicode="I" horiz-adv-x="280" 
d="M48 0v550h184v-550h-184z" />
    <glyph glyph-name="J" unicode="J" 
d="M730 550v-440q0 -46 -32 -78t-78 -32h-550v293h183v-146h294v403h183z" />
    <glyph glyph-name="K" unicode="K" 
d="M515 275l215 -275h-233l-158 202h-86v-202h-183v550h183v-202h86l158 202h233z" />
    <glyph glyph-name="L" unicode="L" 
d="M730 147v-147h-550q-46 0 -78 32t-32 78v440h183v-403h477z" />
    <glyph glyph-name="M" unicode="M" horiz-adv-x="870" 
d="M803 440v-440h-184v288l-183 -288l-183 288v-288h-184v440q0 46 32.5 78t77.5 32h81l176 -277l176 277h81q45 0 77.5 -32t32.5 -78z" />
    <glyph glyph-name="N" unicode="N" 
d="M730 550v-440q0 -46 -32 -78t-78 -32h-94l-273 341v-341h-183v440q0 46 32 78t78 32h94l273 -341v341h183z" />
    <glyph glyph-name="O" unicode="O" 
d="M547 147v256h-294v-256h294zM620 550q46 0 78 -32t32 -78v-330q0 -46 -32 -78t-78 -32h-440q-46 0 -78 32t-32 78v330q0 46 32 78t78 32h440z" />
    <glyph glyph-name="P" unicode="P" 
d="M620 550q46 0 78 -32t32 -78v-147q0 -45 -32 -77.5t-78 -32.5h-367v-183h-183v550h550zM547 330v73h-294v-73h294z" />
    <glyph glyph-name="Q" unicode="Q" 
d="M729 67l34 -33l-34 -34l-70 -70l-70 70h-410q-45 0 -77.5 32t-32.5 78v330q0 46 32.5 78t77.5 32h440q46 0 78 -32t32 -78v-373zM546 250v153h-293v-256h189l-58 58l104 104z" />
    <glyph glyph-name="R" unicode="R" 
d="M620 550q46 0 78 -32t32 -78v-147q0 -45 -32 -77.5t-78 -32.5h-43l153 -183h-191l-154 183h-132v-183h-183v550h550zM547 330v73h-294v-73h294z" />
    <glyph glyph-name="S" unicode="S" 
d="M730 348v-146v146zM253 403v-55h477v-238v-5q-2 -43 -34 -74t-76 -31h-550v147h477v55h-477v238v5q2 44 34.5 74.5t75.5 30.5h550v-147h-477z" />
    <glyph glyph-name="T" unicode="T" 
d="M737 550v-147h-239v-403h-183v403h-238v147h660z" />
    <glyph glyph-name="U" unicode="U" 
d="M726 550v-440q0 -46 -32 -78t-78 -32h-440q-46 0 -78 32t-32 78v440h183v-403h294v403h183z" />
    <glyph glyph-name="V" unicode="V" 
d="M526 550h203l-257 -550h-147l-256 550h202l128 -274z" />
    <glyph glyph-name="W" unicode="W" horiz-adv-x="1070" 
d="M1018 550l-132 -440q-13 -46 -55 -78t-88 -32h-81l-127 341l-128 -341h-81q-46 0 -88 32t-55 78l-131 440h191l95 -317l118 317h157l119 -317l94 317h192z" />
    <glyph glyph-name="X" unicode="X" 
d="M520 275l214 -275h-232l-98 126l-98 -126h-232l214 275l-214 275h232l98 -126l98 126h232z" />
    <glyph glyph-name="Y" unicode="Y" 
d="M726 550v-440q0 -46 -32 -78t-78 -32h-550v37q0 45 32 77.5t78 32.5h330q15 0 26 10.5t11 25.5v19h-367q-46 0 -78 32t-32 78v238h183v-202h257q15 0 26 11t11 26v165h183z" />
    <glyph glyph-name="Z" unicode="Z" 
d="M724 440v-71l-364 -222h364v-147h-550q-46 0 -78 32t-32 78v71l364 222h-364v147h550q45 0 77.5 -32t32.5 -78z" />
    <glyph glyph-name="bracketleft" unicode="[" horiz-adv-x="330" 
d="M220 428v-256h73v-147h-146q-46 0 -78 32t-32 78v330q0 46 32 78t78 32h146v-147h-73z" />
    <glyph glyph-name="backslash" unicode="\" horiz-adv-x="600" 
d="M49 551h184l318 -551h-184z" />
    <glyph glyph-name="bracketright" unicode="]" horiz-adv-x="330" 
d="M292 440v-330q0 -46 -32.5 -78t-77.5 -32h-147v147h73v256h-73v147h147q45 0 77.5 -32t32.5 -78z" />
    <glyph glyph-name="asciicircum" unicode="^" horiz-adv-x="1000" 
 />
    <glyph glyph-name="underscore" unicode="_" horiz-adv-x="770" 
d="M30 157h708v-157h-708v157z" />
    <glyph glyph-name="a" unicode="a" 
d="M617 550q45 0 77.5 -32t32.5 -78v-440h-184v183h-293v-183h-183v440q0 46 32 78t78 32h440zM543 330v73h-293v-73h293z" />
    <glyph glyph-name="b" unicode="b" 
d="M620 550q46 0 78 -32t32 -78v-113q0 -16 -10.5 -31.5t-26.5 -20.5q16 -5 26.5 -20.5t10.5 -31.5v-113q0 -46 -32 -78t-78 -32h-550v550h550zM547 147v55h-294v-55h294zM547 348v55h-294v-55h294z" />
    <glyph glyph-name="c" unicode="c" 
d="M253 403v-256h477v-147h-550q-46 0 -78 32t-32 78v330q0 46 32 78t78 32h550v-147h-477z" />
    <glyph glyph-name="d" unicode="d" 
d="M620 550q46 0 78 -32t32 -78v-330q0 -46 -32 -78t-78 -32h-550v550h550zM547 147v256h-294v-256h294z" />
    <glyph glyph-name="e" unicode="e" 
d="M253 403v-55h395v-146h-395v-55h477v-147h-550q-46 0 -78 32t-32 78v330q0 46 32 78t78 32h550v-147h-477z" />
    <glyph glyph-name="f" unicode="f" 
d="M253 403v-73h404v-147h-404v-183h-183v440q0 46 32 78t78 32h550v-147h-477z" />
    <glyph glyph-name="g" unicode="g" 
d="M253 403v-256h294v55h-239v146h422v-348h-550q-46 0 -78 32t-32 78v330q0 46 32 78t78 32h550v-147h-477z" />
    <glyph glyph-name="h" unicode="h" 
d="M730 550v-550h-183v202h-294v-202h-183v550h183v-202h294v202h183z" />
    <glyph glyph-name="i" unicode="i" horiz-adv-x="280" 
d="M48 0v550h184v-550h-184z" />
    <glyph glyph-name="j" unicode="j" 
d="M730 550v-440q0 -46 -32 -78t-78 -32h-550v293h183v-146h294v403h183z" />
    <glyph glyph-name="k" unicode="k" 
d="M515 275l215 -275h-233l-158 202h-86v-202h-183v550h183v-202h86l158 202h233z" />
    <glyph glyph-name="l" unicode="l" 
d="M730 147v-147h-550q-46 0 -78 32t-32 78v440h183v-403h477z" />
    <glyph glyph-name="m" unicode="m" horiz-adv-x="870" 
d="M803 440v-440h-184v288l-183 -288l-183 288v-288h-184v440q0 46 32.5 78t77.5 32h81l176 -277l176 277h81q45 0 77.5 -32t32.5 -78z" />
    <glyph glyph-name="n" unicode="n" 
d="M730 550v-440q0 -46 -32 -78t-78 -32h-94l-273 341v-341h-183v440q0 46 32 78t78 32h94l273 -341v341h183z" />
    <glyph glyph-name="o" unicode="o" 
d="M547 147v256h-294v-256h294zM620 550q46 0 78 -32t32 -78v-330q0 -46 -32 -78t-78 -32h-440q-46 0 -78 32t-32 78v330q0 46 32 78t78 32h440z" />
    <glyph glyph-name="p" unicode="p" 
d="M620 550q46 0 78 -32t32 -78v-147q0 -45 -32 -77.5t-78 -32.5h-367v-183h-183v550h550zM547 330v73h-294v-73h294z" />
    <glyph glyph-name="q" unicode="q" 
d="M729 67l34 -33l-34 -34l-70 -70l-70 70h-410q-45 0 -77.5 32t-32.5 78v330q0 46 32.5 78t77.5 32h440q46 0 78 -32t32 -78v-373zM546 250v153h-293v-256h189l-58 58l104 104z" />
    <glyph glyph-name="r" unicode="r" 
d="M620 550q46 0 78 -32t32 -78v-147q0 -45 -32 -77.5t-78 -32.5h-43l153 -183h-191l-154 183h-132v-183h-183v550h550zM547 330v73h-294v-73h294z" />
    <glyph glyph-name="s" unicode="s" 
d="M730 348v-146v146zM253 403v-55h477v-238v-5q-2 -43 -34 -74t-76 -31h-550v147h477v55h-477v238v5q2 44 34.5 74.5t75.5 30.5h550v-147h-477z" />
    <glyph glyph-name="t" unicode="t" 
d="M737 550v-147h-239v-403h-183v403h-238v147h660z" />
    <glyph glyph-name="u" unicode="u" 
d="M726 550v-440q0 -46 -32 -78t-78 -32h-440q-46 0 -78 32t-32 78v440h183v-403h294v403h183z" />
    <glyph glyph-name="v" unicode="v" 
d="M526 550h203l-257 -550h-147l-256 550h202l128 -274z" />
    <glyph glyph-name="w" unicode="w" horiz-adv-x="1070" 
d="M1018 550l-132 -440q-13 -46 -55 -78t-88 -32h-81l-127 341l-128 -341h-81q-46 0 -88 32t-55 78l-131 440h191l95 -317l118 317h157l119 -317l94 317h192z" />
    <glyph glyph-name="x" unicode="x" 
d="M520 275l214 -275h-232l-98 126l-98 -126h-232l214 275l-214 275h232l98 -126l98 126h232z" />
    <glyph glyph-name="y" unicode="y" 
d="M726 550v-440q0 -46 -32 -78t-78 -32h-550v37q0 45 32 77.5t78 32.5h330q15 0 26 10.5t11 25.5v19h-367q-46 0 -78 32t-32 78v238h183v-202h257q15 0 26 11t11 26v165h183z" />
    <glyph glyph-name="z" unicode="z" 
d="M724 440v-71l-364 -222h364v-147h-550q-46 0 -78 32t-32 78v71l364 222h-364v147h550q45 0 77.5 -32t32.5 -78z" />
    <glyph glyph-name="bar" unicode="|" horiz-adv-x="290" 
d="M65 -94v708h158v-708h-158z" />
    <glyph glyph-name="sterling" unicode="&#xa3;" horiz-adv-x="648" 
d="M609 440v-73h-146v36h-147v-55h110v-146h-110v-55h293v-147h-550v147h74v55h-74v146h74v92q0 46 32 78t78 32h256q46 0 78 -32t32 -78z" />
  </font>
</defs>
</svg>
