<?xml version="1.0" standalone="no"?>
<!DOCTYPE svg PUBLIC "-//W3C//DTD SVG 1.1//EN" "http://www.w3.org/Graphics/SVG/1.1/DTD/svg11.dtd" >
<svg xmlns="http://www.w3.org/2000/svg" xmlns:xlink="http://www.w3.org/1999/xlink" version="1.1">
<metadata>
Created by FontForge 20170731 at Wed Mar 15 11:57:51 2006
 By Aleksey,,,
Copyright Mecanorma International 1991. \ All rights reserved.  This product is licensed, not sold, \ and may not be reproduced without the consent of \ Mecanorma International.
</metadata>
<defs>
<font id="BritishInseratMN" horiz-adv-x="411" >
  <font-face 
    font-family="British Inserat MN"
    font-weight="400"
    font-stretch="normal"
    units-per-em="1000"
    panose-1="2 0 5 6 0 0 0 2 0 4"
    ascent="800"
    descent="-200"
    x-height="535"
    cap-height="667"
    bbox="-33 -221 753 897"
    underline-thickness="41"
    underline-position="-215"
    unicode-range="U+0020-FB02"
  />
<missing-glyph horiz-adv-x="289" 
 />
    <glyph glyph-name="fi" unicode="fi" horiz-adv-x="461" 
d="M421 537v-537h-127v537h127zM421 668v-109h-127v109h127zM241 591h-24q-20 0 -29 -7.5t-9 -26.5v-15h62v-78h-62v-464h-127v464h-25v78h25q1 29 3.5 52t12 39.5t30.5 25.5t60 9h83v-77z" />
    <glyph glyph-name="fl" unicode="fl" horiz-adv-x="461" 
d="M421 668v-668h-127v668h127zM241 590h-24q-20 0 -29 -7t-9 -26v-15h62v-78h-62v-464h-127v464h-25v78h25q1 29 3.5 52t12 39.5t30.5 25.5t60 9h83v-78z" />
    <glyph glyph-name=".notdef" horiz-adv-x="289" 
 />
    <glyph glyph-name=".null" horiz-adv-x="0" 
 />
    <glyph glyph-name="nonmarkingreturn" horiz-adv-x="289" 
 />
    <glyph glyph-name="space" unicode=" " horiz-adv-x="289" 
 />
    <glyph glyph-name="space" unicode="&#xa0;" horiz-adv-x="289" 
 />
    <glyph glyph-name="exclam" unicode="!" horiz-adv-x="226" 
d="M41 114h142v-114h-142v114zM186 667l-19 -508h-106l-21 508h146z" />
    <glyph glyph-name="quotedbl" unicode="&#x22;" horiz-adv-x="324" 
d="M284 667l-14 -214h-80l-13 214h107zM147 667l-13 -214h-81l-13 214h107z" />
    <glyph glyph-name="dollar" unicode="$" 
d="M153 668v37h107v-38q32 -3 53.5 -11t34 -23t18 -37.5t5.5 -55.5v-107h-142v99q0 18 -5 28.5t-18 10.5q-23 0 -23 -36v-80q0 -12 0.5 -18.5t3.5 -11.5t9.5 -9t18.5 -10l55 -27q28 -14 47.5 -23.5t31.5 -20.5t17 -26.5t5 -42.5v-170q0 -48 -28 -72t-83 -29v-40h-107v39
q-17 3 -36 6t-41 20q-21 16 -28 38.5t-7 65.5v149h142v-129q0 -26 4 -39t21 -13q13 0 17 9.5t4 30.5v135q0 14 -12 21t-27 15l-61 29q-23 11 -40 20.5t-27.5 21t-15.5 27t-5 39.5v93q0 35 3.5 58.5t15.5 38.5t34 24t59 14z" />
    <glyph glyph-name="percent" unicode="%" horiz-adv-x="511" 
d="M387 227q0 11 -4 17.5t-12 6.5t-12 -7.5t-4 -15.5v-155q0 -19 18 -19q7 0 10.5 6t3.5 13v154zM271 222q0 29 6.5 45.5t19.5 24.5t30.5 10t40.5 2q28 0 48 -3t32 -11.5t17.5 -24t5.5 -40.5v-152q0 -27 -6 -42t-18 -22.5t-29.5 -9.5t-40.5 -2q-31 0 -51.5 2.5t-32.5 10.5
t-17 24.5t-5 43.5v144zM158 588q0 23 -16 23q-8 0 -11.5 -7t-3.5 -15v-156q0 -18 17 -18q7 0 10.5 6t3.5 13v154zM40 582q0 29 7 45.5t20 25t31 10.5t41 2q29 0 48.5 -3t31.5 -11.5t17.5 -24t5.5 -40.5v-152q0 -27 -6 -42t-18 -22.5t-30 -9.5t-41 -2q-31 0 -51.5 2t-33 10.5
t-17.5 24.5t-5 43v144zM438 660l-320 -663h-48l321 663h47z" />
    <glyph glyph-name="ampersand" unicode="&#x26;" horiz-adv-x="452" 
d="M228 311h-11q-20 0 -27.5 -7.5t-7.5 -24.5v-146q0 -20 4 -32t26 -12h16v222zM228 520h137v-120h47v-89h-47v-311h-149q-15 0 -25.5 -0.5t-25.5 -0.5q-66 0 -95.5 27.5t-29.5 90.5v141q0 19 2 33t8 24.5t16.5 19t27.5 17.5q-14 7 -24 13.5t-17 15.5t-10 22.5t-3 36.5v111
q0 63 33 89.5t108 26.5h140v-92h-102q-18 0 -27.5 -5.5t-9.5 -30.5v-94q0 -32 9 -40t37 -6v121z" />
    <glyph glyph-name="quotesingle" unicode="'" horiz-adv-x="187" 
d="M147 667l-13 -214h-81l-13 214h107z" />
    <glyph glyph-name="parenleft" unicode="(" horiz-adv-x="247" 
d="M207 750v-89q-15 0 -23.5 -2.5t-13 -9.5t-5.5 -18.5t-1 -29.5v-564q0 -18 1 -30t5 -19t13 -10t24 -3v-89h-59q-33 0 -54 8.5t-33 25t-16 39t-4 51.5v617q0 37 5.5 60.5t19.5 37.5t37.5 19.5t59.5 5.5h44z" />
    <glyph glyph-name="parenright" unicode=")" horiz-adv-x="247" 
d="M40 750h44q36 0 60 -5.5t38 -19.5t20 -37.5t6 -60.5v-617q0 -29 -4.5 -52t-17 -39t-33.5 -24.5t-54 -8.5h-59v89q15 0 23.5 3t12.5 10t4.5 19t0.5 30v564q0 18 -1 29.5t-5 18.5t-12 9.5t-23 2.5v89z" />
    <glyph glyph-name="asterisk" unicode="*" horiz-adv-x="328" 
d="M184 571l83 49l20 -36l-82 -48l83 -47l-21 -36l-83 48v-95h-41v94l-83 -48l-17 39l80 45l-83 47l21 36l82 -47v95h41v-96z" />
    <glyph glyph-name="plus" unicode="+" horiz-adv-x="516" 
d="M228 363v190h60v-190h188v-59h-188v-190h-60v190h-188v59h188z" />
    <glyph glyph-name="comma" unicode="," horiz-adv-x="187" 
d="M147 114v-110q0 -55 -23.5 -78.5t-83.5 -25.5v51q37 3 37 38v11h-37v114h107z" />
    <glyph glyph-name="hyphen" unicode="-" horiz-adv-x="261" 
d="M40 312h181v-92h-181v92z" />
    <glyph glyph-name="hyphen" unicode="&#xad;" horiz-adv-x="261" 
d="M40 312h181v-92h-181v92z" />
    <glyph glyph-name="period" unicode="." horiz-adv-x="187" 
d="M147 114v-114h-107v114h107z" />
    <glyph glyph-name="slash" unicode="/" horiz-adv-x="540" 
d="M500 677l-411 -688h-49l411 688h49z" />
    <glyph glyph-name="zero" unicode="0" 
d="M229 530q0 17 -3 31t-18 14q-14 0 -20 -9.5t-6 -23.5v-413q0 -17 6.5 -25t14.5 -8q16 0 21 8t5 36v390zM40 530q0 39 6 65.5t22.5 43t44.5 24t72 7.5q47 0 82 -3t58 -16.5t34.5 -42t11.5 -78.5v-399q0 -39 -7 -65t-22.5 -41t-41.5 -21t-64 -6q-64 0 -102.5 3.5t-59.5 17
t-27.5 40.5t-6.5 75v396z" />
    <glyph glyph-name="one" unicode="1" horiz-adv-x="306" 
d="M265 667v-667h-142v486h-83v94q52 2 76 24t32 63h117z" />
    <glyph glyph-name="two" unicode="2" horiz-adv-x="409" 
d="M40 436v95q0 44 7.5 71.5t26 42.5t51 20t82.5 5q41 0 71.5 -4t51 -17t30.5 -37t10 -64v-76q0 -19 -1 -35t-4 -31t-9 -30t-16 -32l-151 -252h181v-92h-330v110l162 268q11 19 18.5 32.5t7.5 38.5v83q0 14 -3 27t-21 13q-22 0 -22 -34v-102h-142z" />
    <glyph glyph-name="three" unicode="3" horiz-adv-x="410" 
d="M39 434v125q0 62 36.5 86t116.5 24q40 0 72.5 -3t56 -14t36.5 -33t13 -59v-129q0 -29 -13.5 -45.5t-41.5 -29.5q29 -10 42 -27.5t13 -49.5v-170q0 -39 -13 -62t-36.5 -34t-57 -14t-74.5 -3t-69 4.5t-51 27.5q-30 28 -30 72v179h142v-147q0 -15 3.5 -26.5t18.5 -11.5
q16 0 20.5 9.5t4.5 23.5v155q0 21 -8.5 26t-26.5 5h-41v89h47q22 0 25.5 10t3.5 27v90q0 20 -5.5 31t-19.5 11q-22 0 -22 -37v-100h-142z" />
    <glyph glyph-name="four" unicode="4" horiz-adv-x="432" 
d="M215 504l-44 -271h44v271zM350 667v-434h42v-89h-42v-144h-135v144h-175v87l114 436h196z" />
    <glyph glyph-name="five" unicode="5" horiz-adv-x="410" 
d="M371 663v-89h-189v-112q17 9 35.5 16.5t42.5 7.5q60 0 85.5 -29t25.5 -87v-258q0 -41 -12.5 -64.5t-35.5 -35t-57 -14t-77 -2.5q-41 0 -69.5 3.5t-46 16t-25.5 36.5t-8 65v160h142v-155q0 -15 6.5 -23t17.5 -8q16 0 19.5 12t3.5 29v231q0 13 -6 21t-17 8q-24 0 -24 -28
v-24h-142v323h331z" />
    <glyph glyph-name="six" unicode="6" 
d="M229 289q0 11 -6 19.5t-17 8.5q-13 0 -18.5 -11t-5.5 -28v-154q0 -12 5.5 -20t14.5 -8q13 0 20 7.5t7 27.5v158zM371 436h-142v91q0 16 -2.5 30.5t-18.5 14.5q-18 0 -22 -12t-4 -35v-136q13 5 29.5 12.5t50.5 7.5q25 0 50 -11t38 -27q12 -15 16.5 -34t4.5 -40v-172
q0 -43 -10 -68t-30 -38t-52 -16.5t-75 -3.5q-49 0 -81 5.5t-50.5 19.5t-25.5 38.5t-7 62.5v401q0 18 0.5 33t3 28t8 25t16.5 23q18 19 45.5 27t62.5 8q50 0 87 -3t61 -15t35.5 -36t11.5 -66v-114z" />
    <glyph glyph-name="seven" unicode="7" horiz-adv-x="404" 
d="M58 668h306v-116l-178 -552h-146l186 572h-168v96z" />
    <glyph glyph-name="eight" unicode="8" horiz-adv-x="413" 
d="M230 284q0 11 -5.5 21.5t-18.5 10.5q-24 0 -24 -37v-152q0 -20 6 -27t20 -7t18 9t4 25v157zM233 543q0 14 -5.5 22.5t-18.5 8.5q-14 0 -19 -10.5t-5 -26.5v-96q0 -20 5.5 -29.5t19.5 -9.5q13 0 18 12t5 26v103zM43 436v119q0 41 12 64t34 34t51.5 13.5t65.5 2.5
q39 0 69.5 -2.5t51.5 -13.5t32 -34t11 -63v-107q0 -22 -3 -36.5t-9 -25t-16 -17.5t-24 -14q18 -9 28.5 -17.5t16.5 -19t7.5 -25t1.5 -33.5v-140q0 -18 -4.5 -39.5t-11.5 -34.5q-9 -17 -22.5 -27t-31.5 -15t-42 -6t-54 -1q-45 0 -76.5 4t-51.5 17.5t-29 38t-9 66.5v147
q0 42 13.5 59.5t42.5 28.5q-27 13 -40 30.5t-13 46.5z" />
    <glyph glyph-name="nine" unicode="9" horiz-adv-x="410" 
d="M40 233h142v-101q0 -16 4 -26t17 -10q14 0 20 7.5t6 26.5v150q-14 -8 -31.5 -14.5t-43.5 -6.5t-47 7t-38 24q-20 20 -24.5 41t-4.5 48v149q0 46 8 74t26.5 43t50.5 19.5t80 4.5q54 0 86.5 -6.5t50 -22.5t23.5 -42.5t6 -66.5v-413q0 -44 -11.5 -67.5t-33.5 -34.5
t-54.5 -13t-74.5 -2q-47 0 -77.5 4.5t-48 18t-24.5 37.5t-7 62v110zM229 534q0 18 -6 29t-17 11q-12 0 -18 -10t-6 -27v-157q0 -29 24 -29q15 0 19 10t4 26v147z" />
    <glyph glyph-name="colon" unicode=":" horiz-adv-x="188" 
d="M148 114v-114h-107v114h107zM148 320v-114h-107v114h107z" />
    <glyph glyph-name="semicolon" unicode=";" horiz-adv-x="188" 
d="M148 114v-110q0 -55 -23.5 -78.5t-83.5 -25.5v51q37 3 37 38q0 3 -0.5 5.5t-0.5 5.5h-36v114h107zM148 320v-114h-107v114h107z" />
    <glyph glyph-name="semicolon" unicode="&#x37e;" horiz-adv-x="188" 
d="M148 114v-110q0 -55 -23.5 -78.5t-83.5 -25.5v51q37 3 37 38q0 3 -0.5 5.5t-0.5 5.5h-36v114h107zM148 320v-114h-107v114h107z" />
    <glyph glyph-name="question" unicode="?" 
d="M131 114h142v-114h-142v114zM230 476v59q0 18 -5 29.5t-19 11.5q-17 0 -20.5 -13.5t-3.5 -29.5v-96h-142v122q0 63 31.5 87.5t105.5 24.5q44 0 80 -1.5t61.5 -12t39.5 -34t14 -67.5v-103q0 -20 -7.5 -42.5t-20.5 -40.5l-46 -63q-6 -8 -15.5 -21.5t-9.5 -32.5v-98h-142
v124q0 12 4 23.5t10 21t12 17l10 12.5l46 63q11 14 14 25.5t3 34.5z" />
    <glyph glyph-name="A" unicode="A" horiz-adv-x="399" 
d="M199 517l-25 -287h48zM296 667l83 -667h-141l-8 141h-64l-16 -141h-130l80 667h196z" />
    <glyph glyph-name="B" unicode="B" horiz-adv-x="412" 
d="M183 312v-223h15q14 0 21.5 5.5t9.5 13.5q1 2 1 8.5v10.5v144q0 25 -7 33t-27 8h-13zM183 572v-173h20q17 0 22 8.5t5 28.5v98q0 18 -4 28t-21 10h-22zM41 668h214q60 0 88.5 -30t28.5 -81v-140q0 -43 -56 -65q18 -8 29 -16.5t17 -19t8 -24.5t2 -33v-158
q0 -101 -121 -101h-210v668z" />
    <glyph glyph-name="C" unicode="C" horiz-adv-x="413" 
d="M230 438v94q0 20 -4.5 32.5t-20.5 12.5q-13 0 -18 -9.5t-5 -26.5v-415q0 -12 7 -21t19 -9q10 0 16 8t6 16v162h142v-186q0 -32 -12.5 -51.5t-35 -29.5t-52.5 -13t-65 -3q-40 0 -71 3t-52.5 15t-32.5 37t-11 69v442q0 30 7.5 51t26.5 34t51 19t81 6q37 0 68 -4t52.5 -16
t33.5 -33.5t12 -56.5v-127h-142z" />
    <glyph glyph-name="D" unicode="D" horiz-adv-x="414" 
d="M185 575v-486h16q23 0 27 10.5t4 33.5v396q0 18 -3.5 32t-27.5 14h-16zM40 667h205q8 0 23 -2.5t32 -4.5q30 -5 52 -34.5t22 -78.5v-422q0 -63 -27.5 -94t-100.5 -31h-206v667z" />
    <glyph glyph-name="E" unicode="E" horiz-adv-x="312" 
d="M271 668v-96h-88v-165h88v-89h-88v-229h88v-89h-230v668h230z" />
    <glyph glyph-name="F" unicode="F" horiz-adv-x="312" 
d="M271 668v-96h-88v-165h88v-89h-88v-318h-142v668h230z" />
    <glyph glyph-name="G" unicode="G" horiz-adv-x="413" 
d="M298 42q-11 -12 -22 -21t-24 -14.5t-29.5 -8t-40.5 -2.5q-44 0 -72 6.5t-43.5 21.5t-21 39t-5.5 59v415q0 44 8.5 70t28.5 39.5t52.5 17.5t79.5 4t78 -3t51 -21q15 -14 24.5 -37t9.5 -49v-127h-142v107q0 14 -4 24.5t-21 10.5q-13 0 -18 -9t-5 -24v-405q0 -19 4.5 -31.5
t21.5 -12.5q11 0 16.5 9.5t5.5 18.5v141h-31v89h173v-349h-47z" />
    <glyph glyph-name="H" unicode="H" horiz-adv-x="413" 
d="M40 667h142v-258h48v258h142v-667h-142v320h-48v-320h-142v667z" />
    <glyph glyph-name="I" unicode="I" horiz-adv-x="222" 
d="M40 667h142v-667h-142v667z" />
    <glyph glyph-name="J" unicode="J" horiz-adv-x="389" 
d="M349 667v-555q0 -40 -12 -63t-33.5 -35t-51 -15t-63.5 -3q-35 0 -64.5 2t-51 13t-34 34t-12.5 66v164h133v-148q0 -17 5.5 -26.5t16.5 -9.5q15 0 20 11t5 28v537h142z" />
    <glyph glyph-name="K" unicode="K" 
d="M368 667l-75 -290l92 -377h-140l-63 310v-310h-142v667h142v-260l51 260h135z" />
    <glyph glyph-name="L" unicode="L" horiz-adv-x="306" 
d="M185 669v-576h94v-92h-239v668h145z" />
    <glyph glyph-name="M" unicode="M" horiz-adv-x="558" 
d="M40 0v667h201l39 -327l42 327h196v-667h-130v371l-63 -371h-95l-59 371v-371h-131z" />
    <glyph glyph-name="N" unicode="N" horiz-adv-x="435" 
d="M395 0h-146l-81 346v-346h-127v667h148l79 -323v323h127v-667z" />
    <glyph glyph-name="O" unicode="O" 
d="M230 531q0 43 -25 43q-13 0 -18 -10.5t-5 -28.5v-390q0 -23 4 -36.5t23 -13.5q16 0 18.5 13t2.5 44v379zM40 553q0 40 10 63.5t30 35t51.5 14.5t74.5 3q44 0 75.5 -3t51.5 -16.5t29.5 -40.5t9.5 -75v-404q0 -44 -8 -69.5t-27 -39t-51 -17.5t-80 -4q-45 0 -77 4.5
t-51.5 18.5t-28.5 39.5t-9 67.5v423z" />
    <glyph glyph-name="P" unicode="P" 
d="M182 575v-258h19q17 0 22.5 9.5t5.5 26.5v188q0 17 -4.5 25.5t-23.5 8.5h-19zM40 667h200q24 0 48 -5.5t37 -13.5q33 -19 39.5 -49.5t6.5 -68.5v-184q0 -63 -32.5 -90.5t-104.5 -27.5h-52v-228h-142v667z" />
    <glyph glyph-name="Q" unicode="Q" 
d="M182 118q0 -25 23 -25q24 0 24 44v404q0 16 -7.5 24t-17.5 8q-14 0 -18 -13.5t-4 -34.5v-407zM311 -75q-30 7 -52 15t-40 17.5t-33.5 20t-30.5 21.5q-33 2 -55 9t-35.5 21t-19 36t-5.5 54v414q0 43 9 69.5t28.5 41t51 19.5t77.5 5q49 0 81 -5t51 -19.5t26 -40.5t7 -68
v-419q0 -58 -21.5 -83t-72.5 -34q9 -3 24 -5t22 -2h40z" />
    <glyph glyph-name="R" unicode="R" horiz-adv-x="412" 
d="M183 576v-204h19q17 0 22.5 8t5.5 27v134q0 22 -6 28.5t-28 6.5h-13zM41 667h187q36 0 63 -5t45 -18t27 -36.5t9 -60.5v-139q0 -35 -13 -53.5t-42 -29.5q35 -16 45 -36t10 -58v-231h-142v248q0 20 -6.5 28t-26.5 8h-14v-284h-142v667z" />
    <glyph glyph-name="S" unicode="S" horiz-adv-x="412" 
d="M372 440h-142v102q0 16 -5.5 26.5t-16.5 10.5q-18 0 -22 -12.5t-4 -26.5v-83q0 -21 4 -27t22 -15l95 -45q20 -10 33.5 -19.5t21.5 -21.5t11 -28t3 -39v-137q0 -67 -30 -97.5t-107 -30.5q-53 0 -90 4t-60.5 16.5t-34 35t-10.5 58.5v166h142v-144q0 -38 23 -38
q14 0 19.5 10.5t5.5 29.5v122q0 13 -1.5 20.5t-5.5 12t-11.5 8t-19.5 9.5l-89 42q-20 10 -32.5 20t-19 22t-9 27t-2.5 36v110q0 33 9.5 54.5t29 34t50.5 17t74 4.5q44 0 76 -3t52.5 -16t30.5 -38t10 -68v-109z" />
    <glyph glyph-name="T" unicode="T" horiz-adv-x="329" 
d="M309 667v-89h-73v-578h-142v578h-74v89h289z" />
    <glyph glyph-name="U" unicode="U" 
d="M372 667v-539q0 -42 -7 -68.5t-25.5 -41t-50 -19.5t-80.5 -5q-40 0 -71.5 2.5t-53 15t-33 38t-11.5 70.5v547h142v-526q0 -29 5.5 -40.5t22.5 -11.5q13 0 16.5 15t3.5 40v523h142z" />
    <glyph glyph-name="V" unicode="V" horiz-adv-x="388" 
d="M368 667l-84 -667h-184l-80 667h134l40 -446l40 446h134z" />
    <glyph glyph-name="W" unicode="W" horiz-adv-x="611" 
d="M591 667l-78 -667h-163l-51 379l-48 -379h-152l-79 667h128l31 -361l31 361h182l31 -363l31 363h137z" />
    <glyph glyph-name="X" unicode="X" horiz-adv-x="403" 
d="M369 667l-59 -312l67 -355h-135l-38 306l-40 -306h-137l61 355l-61 312h141l29 -254l40 254h132z" />
    <glyph glyph-name="Y" unicode="Y" horiz-adv-x="385" 
d="M365 667l-94 -399v-268h-142v267l-109 400h139l38 -264l40 264h128z" />
    <glyph glyph-name="Z" unicode="Z" horiz-adv-x="348" 
d="M322 668v-94l-143 -484h140v-89h-292v89l148 482h-130v96h277z" />
    <glyph glyph-name="bracketleft" unicode="[" horiz-adv-x="247" 
d="M207 750v-89h-43v-686h43v-89h-166v864h166z" />
    <glyph glyph-name="backslash" unicode="\" horiz-adv-x="540" 
d="M40 677h49l411 -688h-49z" />
    <glyph glyph-name="bracketright" unicode="]" horiz-adv-x="247" 
d="M40 750h168v-864h-168v89h41v686h-41v89z" />
    <glyph glyph-name="asciicircum" unicode="^" horiz-adv-x="500" 
d="M60 450l150 217h80l150 -217h-93l-97 143l-97 -143h-93z" />
    <glyph glyph-name="underscore" unicode="_" horiz-adv-x="355" 
d="M0 -40h355v-92h-355v92z" />
    <glyph glyph-name="grave" unicode="`" horiz-adv-x="233" 
d="M159 713l34 -100h-98l-55 100h119z" />
    <glyph glyph-name="a" unicode="a" horiz-adv-x="370" 
d="M207 249l-24 -13q-8 -5 -13.5 -11t-5.5 -20v-97q0 -31 20 -31q17 0 20 12t3 28v132zM41 351v52q0 46 4 73.5t19 42.5t44 19.5t79 4.5q45 0 72.5 -4.5t43.5 -18.5t21.5 -39.5t5.5 -68.5v-412h-123v22q-18 -12 -35 -21.5t-34 -9.5q-97 0 -97 97v82q0 19 0.5 34.5t5 29
t16 25.5t33.5 24l111 59v88q0 16 -4.5 26t-15.5 10q-14 0 -18.5 -8.5t-4.5 -28.5v-78h-123z" />
    <glyph glyph-name="b" unicode="b" horiz-adv-x="368" 
d="M202 438q0 8 -3 15t-13 7q-20 0 -20 -32v-325q0 -11 3.5 -19.5t13.5 -8.5q14 0 16.5 11.5t2.5 34.5v317zM162 0h-123v667h127v-151q14 11 30 18.5t41 7.5q20 0 35 -4.5t31 -20.5q22 -22 24 -44t2 -49v-339q0 -42 -23.5 -66.5t-57.5 -24.5q-36 0 -53.5 9t-32.5 20v-23z
" />
    <glyph glyph-name="c" unicode="c" horiz-adv-x="372" 
d="M332 323h-127v122q0 7 -4.5 16t-16.5 9q-10 0 -13.5 -9.5t-3.5 -23.5v-332q0 -15 4.5 -22t18.5 -7q9 0 12 7.5t3 18.5v136h127v-148q0 -56 -34.5 -74t-107.5 -18q-40 0 -68.5 3t-46.5 15t-26.5 36t-8.5 66v288q0 48 5.5 75.5t21.5 42t46 18.5t80 4q30 0 55.5 -2.5t44 -12
t29 -28.5t10.5 -51v-129z" />
    <glyph glyph-name="d" unicode="d" horiz-adv-x="369" 
d="M203 423q0 18 -3.5 28t-15.5 10q-9 0 -14.5 -7t-5.5 -16v-337q0 -11 6.5 -18t15.5 -7q12 0 14.5 7.5t2.5 23.5v316zM330 662v-662h-123v22q-17 -12 -33.5 -21t-36.5 -9q-50 0 -73 30t-23 92v323q0 16 0.5 32.5t12.5 34.5q12 19 30.5 28.5t41.5 9.5q26 0 43.5 -7.5
t33.5 -18.5v146h127z" />
    <glyph glyph-name="e" unicode="e" horiz-adv-x="371" 
d="M164 329h43v108q0 14 -4.5 22.5t-15.5 8.5q-14 0 -18.5 -10.5t-4.5 -30.5v-98zM164 251v-147q0 -28 22 -28q12 0 16.5 9t4.5 23v91h123v-70q0 -40 -4 -65.5t-18 -40t-40.5 -20t-71.5 -5.5t-75 4t-48 17t-25 38t-7 68v312q0 31 6 51.5t21.5 33.5t41.5 18.5t65 5.5
q49 0 79.5 -4t47 -17t22.5 -39t6 -69v-166h-166z" />
    <glyph glyph-name="f" unicode="f" horiz-adv-x="268" 
d="M241 590h-24q-20 0 -29 -7t-9 -26v-15h62v-78h-62v-464h-127v464h-25v78h25q1 29 3.5 52t12 39.5t30.5 25.5t60 9h83v-78z" />
    <glyph glyph-name="g" unicode="g" horiz-adv-x="369" 
d="M209 536h119v-530q0 -29 -2.5 -53t-12.5 -41t-30 -26.5t-55 -9.5h-188v78h121q21 0 32.5 3t11.5 23v40q-12 -7 -20 -12t-17 -8t-20.5 -4.5t-29.5 -1.5q-8 0 -18 3.5t-19.5 9.5t-17.5 13.5t-12 15.5q-6 11 -7 28.5t-1 36.5v327q0 34 6 59t32 42q20 13 35 13.5t28 0.5
q15 0 31.5 -9t33.5 -20v22zM205 424q0 16 -4 26t-16 10q-10 0 -14.5 -8.5t-4.5 -16.5v-324q0 -20 4.5 -26.5t17.5 -6.5q10 0 13.5 9t3.5 22v315z" />
    <glyph glyph-name="h" unicode="h" horiz-adv-x="371" 
d="M167 667v-154q17 13 33 21t44 8q49 0 73 -38q12 -18 13 -35.5t1 -34.5v-434h-123v421q0 16 -4 27t-17 11q-11 0 -15.5 -10t-4.5 -25v-424h-127v667h127z" />
    <glyph glyph-name="i" unicode="i" horiz-adv-x="207" 
d="M167 537v-537h-127v537h127zM167 668v-109h-127v109h127z" />
    <glyph glyph-name="j" unicode="j" horiz-adv-x="254" 
d="M215 668v-109h-127v109h127zM7 -122v78h52q11 0 18.5 2t8.5 13q0 4 1 11.5t1 11.5v543h127v-554q0 -53 -26 -79t-74 -26h-108z" />
    <glyph glyph-name="k" unicode="k" horiz-adv-x="378" 
d="M171 667v-326l46 199h132l-80 -239l82 -301h-132l-48 246v-246h-131v667h131z" />
    <glyph glyph-name="l" unicode="l" horiz-adv-x="207" 
d="M167 667v-667h-127v667h127z" />
    <glyph glyph-name="m" unicode="m" horiz-adv-x="533" 
d="M39 540h127v-20q18 11 33.5 18.5t43.5 7.5q40 0 72 -36q19 14 38 24.5t51 10.5q42 0 65.5 -26t23.5 -78v-441h-123v427q0 15 -5 26t-16 11t-15.5 -11t-4.5 -27v-426h-123v441q0 7 -5 14.5t-16 7.5t-15 -8.5t-4 -22.5v-432h-127v540z" />
    <glyph glyph-name="n" unicode="n" horiz-adv-x="369" 
d="M167 539v-22q15 11 31.5 19t38.5 8q19 0 35 -4.5t31 -18.5q20 -19 23 -40t3 -47v-434h-123v428v13q0 8 -5 14t-17 6q-11 0 -14 -10t-3 -24v-427h-127v539h127z" />
    <glyph glyph-name="o" unicode="o" horiz-adv-x="373" 
d="M207 432q0 20 -3.5 29.5t-16.5 9.5q-12 0 -16 -9t-4 -30v-319q0 -16 3.5 -26t16.5 -10q14 0 17 11t3 26v318zM334 136q0 -27 -2 -52t-13 -44t-35 -30t-67 -11q-59 0 -93.5 5t-53.5 19t-24.5 39.5t-5.5 66.5v292q0 40 6 65t22.5 39t45.5 19t75 5q48 0 76.5 -5.5t43.5 -20
t20 -40t5 -66.5v-281z" />
    <glyph glyph-name="p" unicode="p" horiz-adv-x="370" 
d="M207 437q0 16 -4.5 24t-19.5 8q-8 0 -11.5 -8t-3.5 -19v-318q0 -15 3 -28t18 -13q12 0 15 10t3 25v319zM168 544v-22q12 15 32 22t43 7q45 0 66 -30t21 -90v-328q0 -52 -22.5 -77t-63.5 -25q-27 0 -44.5 6.5t-31.5 19.5v-145h-127v662h127z" />
    <glyph glyph-name="q" unicode="q" horiz-adv-x="371" 
d="M204 421q0 22 -4 31.5t-16 9.5t-14.5 -11t-2.5 -28v-309q0 -16 2.5 -27t13.5 -11q13 0 17 11t4 34v300zM204 537h127v-662h-127v145q-15 -11 -31 -19t-44 -8q-47 0 -68 30t-21 89v305q0 26 2 49t14 41q11 17 31 26.5t44 9.5q26 0 41.5 -8t31.5 -21v23z" />
    <glyph glyph-name="r" unicode="r" horiz-adv-x="347" 
d="M164 539v-23q16 14 32.5 21t36.5 7q45 0 66 -26t21 -58v-141h-117v116q0 15 -6 21t-17 6q-8 0 -12 -10.5t-4 -26.5v-425h-123v539h123z" />
    <glyph glyph-name="s" unicode="s" horiz-adv-x="371" 
d="M208 353v83q0 11 -5.5 21t-14.5 10q-13 0 -17.5 -10t-4.5 -26v-60q0 -19 3.5 -27t19.5 -16l61 -29q21 -10 36.5 -17.5t25.5 -18t14.5 -27t4.5 -43.5v-82q0 -42 -9 -65t-29.5 -34.5t-52 -13.5t-76.5 -2q-35 0 -59 5t-38.5 18t-21 35t-6.5 56v86h127v-90q0 -11 3.5 -22
t14.5 -11q13 0 18.5 10.5t5.5 27.5v70q0 14 -1 22t-4.5 13.5t-9.5 8.5l-16 8l-59 26q-18 8 -33 15t-25 16.5t-15.5 24.5t-5.5 39v72q0 37 7.5 60t23.5 36t40.5 18t57.5 5q41 0 71.5 -2t51 -13t30.5 -34t10 -64v-79h-123z" />
    <glyph glyph-name="t" unicode="t" horiz-adv-x="246" 
d="M53 537v130h127v-130h37v-78h-37v-340q0 -15 2 -23.5t6.5 -12.5t12 -4.5t19.5 -0.5v-78h-58q-36 0 -58 7.5t-33 22t-14.5 35.5t-3.5 47v347h-26v78h26z" />
    <glyph glyph-name="u" unicode="u" horiz-adv-x="373" 
d="M333 536v-536h-127v21q-14 -14 -33 -20.5t-38 -6.5q-45 0 -70 25.5t-25 78.5v438h127v-429q0 -14 4 -22.5t15 -8.5q10 0 15 6.5t5 14.5v439h127z" />
    <glyph glyph-name="v" unicode="v" horiz-adv-x="364" 
d="M344 538l-87 -538h-152l-85 538h133l31 -336l27 336h133z" />
    <glyph glyph-name="w" unicode="w" horiz-adv-x="529" 
d="M509 537l-84 -537h-132l-29 267l-32 -267h-132l-80 537h135l24 -307l31 307h109l27 -307l31 307h132z" />
    <glyph glyph-name="x" unicode="x" horiz-adv-x="383" 
d="M342 535l-52 -250l67 -285h-133l-29 240l-36 -240h-132l74 286l-48 249h120l22 -201l25 201h122z" />
    <glyph glyph-name="y" unicode="y" horiz-adv-x="373" 
d="M164 539l27 -339l30 339h132l-96 -518q-6 -33 -12 -60.5t-19.5 -48t-37.5 -31.5t-66 -11h-102v78h56q18 0 28.5 2.5t15 10t4 20t-3.5 32.5l-86 526h130z" />
    <glyph glyph-name="z" unicode="z" horiz-adv-x="351" 
d="M325 540v-95l-168 -366h162v-78h-292v92l166 364h-139v83h271z" />
    <glyph glyph-name="braceleft" unicode="{" horiz-adv-x="275" 
d="M235 750v-89q-15 0 -23 -2.5t-12.5 -9.5t-5.5 -18.5t-1 -29.5v-159q1 -21 -1.5 -32.5t-7.5 -17.5t-13.5 -9t-19.5 -6q15 -7 23.5 -11.5t12.5 -11t5 -17t1 -29.5v-271q0 -18 1 -30t5 -19t12.5 -10t23.5 -3v-89h-58q-34 0 -55 9t-33 25t-16 39t-4 51q0 14 0.5 22.5
t0.5 22.5v231q0 32 -4.5 44t-25.5 15v66q21 3 25.5 15.5t4.5 44.5v156q0 34 4 57.5t17 38t37 21t63 6.5h44z" />
    <glyph glyph-name="braceright" unicode="}" horiz-adv-x="275" 
d="M84 750q39 0 63 -6.5t37 -21t17.5 -38t4.5 -57.5v-156q0 -32 4 -44.5t25 -15.5v-66q-21 -3 -25 -15t-4 -44v-231q0 -14 0.5 -22.5t0.5 -22.5q0 -28 -4 -51t-16 -39t-33 -25t-55 -9h-59v89q15 0 24 3t13 10t5 19t1 30v271q0 19 1 29.5t5 17t12.5 11t23.5 11.5
q-13 3 -21 6.5t-12.5 9.5t-6.5 17.5t-2 31.5v159q0 18 -1 29.5t-5.5 18.5t-13 9.5t-23.5 2.5v89h44z" />
    <glyph glyph-name="asciitilde" unicode="~" horiz-adv-x="500" 
d="M316 258q22 0 33.5 14t22.5 38l52 -55q-22 -39 -48.5 -59t-61.5 -20q-21 0 -39.5 6t-35 13t-30.5 13t-26 6q-20 0 -32.5 -14.5t-23.5 -38.5l-51 58q21 38 46 58.5t59 20.5q21 0 40 -6.5t35.5 -14t31.5 -13.5t28 -6z" />
    <glyph glyph-name="exclamdown" unicode="&#xa1;" horiz-adv-x="226" 
d="M41 422v114h142v-114h-142zM186 -132h-146l21 508h106z" />
    <glyph glyph-name="cent" unicode="&#xa2;" horiz-adv-x="372" 
d="M332 447v-125h-127v105q0 20 -2 30.5t-14 12.5q-14 2 -17.5 -9.5t-3.5 -29.5v-326q0 -14 5 -22t15 -8q12 0 14.5 10.5t2.5 29.5v122h127v-140q0 -47 -19.5 -69.5t-61.5 -28.5v-59h-123v60q-45 5 -66 31t-21 89v307q0 32 4 52.5t13.5 33.5t24.5 20t37 12v58h127v-58
q19 -3 34.5 -8.5t26.5 -16.5t17.5 -28.5t6.5 -44.5z" />
    <glyph glyph-name="sterling" unicode="&#xa3;" horiz-adv-x="453" 
d="M414 433h-142v88q0 21 -3 35t-18 14q-26 0 -26 -43v-125h135v-89h-135v-223h18q20 0 24.5 11t4.5 43v138h142v-148q0 -69 -26 -101t-91 -32h-214v312h-43v89h43v132q0 35 5.5 60.5t21.5 42t44 24t72 7.5q55 0 91.5 -4t58 -17.5t30 -38t8.5 -65.5v-110z" />
    <glyph glyph-name="yen" unicode="&#xa5;" horiz-adv-x="425" 
d="M385 667l-45 -197h28v-89h-50l-27 -113v-268h-142v267l-31 114h-57v89h32l-53 197h139l38 -264l40 264h128z" />
    <glyph glyph-name="dieresis" unicode="&#xa8;" horiz-adv-x="295" 
d="M255 709v-96h-84v96h84zM125 709v-96h-84v96h84z" />
    <glyph glyph-name="copyright" unicode="&#xa9;" horiz-adv-x="793" 
d="M418 427v61q0 13 -2.5 21t-13.5 8q-9 0 -12.5 -7t-3.5 -17v-269q0 -8 4.5 -13.5t12.5 -5.5q7 0 11 5t4 10v105h92v-121q0 -34 -23.5 -48.5t-69.5 -14.5h-43q-43 0 -61.5 20t-18.5 61v287q0 37 20.5 54t80.5 17h22q46 0 69.5 -16.5t23.5 -54.5v-82h-92zM40 345
q0 80 27.5 146t75.5 113t113 72.5t140 25.5q76 0 141 -25.5t113 -72.5t75.5 -113t27.5 -146t-27.5 -146t-75.5 -113t-113.5 -72.5t-140.5 -25.5t-140 25.5t-113 72.5t-75.5 113t-27.5 146zM88 348q0 -69 24 -126t65.5 -97.5t97.5 -62.5t121 -22t121 22t97.5 62.5t65.5 97
t24 126.5q0 69 -23.5 126t-65 97.5t-98 62.5t-121.5 22t-121.5 -22t-98 -62.5t-65 -97.5t-23.5 -126z" />
    <glyph glyph-name="guillemotleft" unicode="&#xab;" horiz-adv-x="364" 
d="M189 477l-49 -209l53 -213h-100l-53 213l50 209h99zM319 477l-50 -209l55 -213h-103l-52 213l49 209h101z" />
    <glyph glyph-name="registered" unicode="&#xae;" horiz-adv-x="793" 
d="M389 517v-132h12q8 0 13 2.5t6 10.5v96q0 14 -4.5 18.5t-18.5 4.5h-8zM296 576h122q23 0 40.5 -3t29 -11.5t17.5 -24t6 -39.5v-90q0 -23 -8 -35t-27 -19q23 -11 29 -24t6 -37v-150h-91v161q0 13 -4 18t-18 5h-9v-184h-93v433zM40 350q0 81 27.5 146.5t75.5 112.5
t113 72.5t140 25.5t140.5 -25.5t113.5 -72.5t75.5 -113t27.5 -146t-27.5 -146t-75.5 -113t-113.5 -72.5t-140.5 -25.5t-140 25.5t-113 72.5t-75.5 112.5t-27.5 146.5zM88 351q0 -69 23.5 -126t65 -97.5t98 -62.5t121.5 -22t121.5 22t98 62.5t65.5 97.5t24 126
q0 70 -24 126.5t-65.5 97t-98 62.5t-121.5 22t-121 -22t-97.5 -62.5t-65.5 -97.5t-24 -126z" />
    <glyph glyph-name="degree" unicode="&#xb0;" horiz-adv-x="193" 
d="M60 617q0 -15 10.5 -26t25.5 -11t26 11t11 26q0 18 -11.5 27.5t-25 9.5t-25 -9.5t-11.5 -27.5zM40 617q0 28 17.5 42t39 14t39 -14t17.5 -42t-17.5 -42t-39 -14t-39 14t-17.5 42z" />
    <glyph glyph-name="acute" unicode="&#xb4;" horiz-adv-x="233" 
d="M73 713h120l-55 -100h-98z" />
    <glyph glyph-name="paragraph" unicode="&#xb6;" horiz-adv-x="558" 
d="M518 667v-55h-69v-775h-66v775h-79v-775h-66v417q-198 20 -198 213q0 46 21.5 88.5t56.5 67.5q37 26 93 35t135 9h172z" />
    <glyph glyph-name="guillemotright" unicode="&#xbb;" horiz-adv-x="364" 
d="M174 477h99l51 -210l-53 -212h-101l54 212zM44 477h102l49 -210l-52 -212h-103l55 212z" />
    <glyph glyph-name="questiondown" unicode="&#xbf;" 
d="M281 422h-142v114h142v-114zM113 228q6 8 16 21.5t10 32.5v98h142v-108q0 -5 0.5 -8t0.5 -8q0 -12 -4.5 -23.5t-10.5 -21.5t-12.5 -17.5t-10.5 -12.5l-46 -62q-11 -15 -13.5 -26.5t-2.5 -33.5v-59q0 -18 4.5 -29.5t18.5 -11.5q17 0 21 13t4 29v97h142v-123
q0 -41 -12.5 -63.5t-36.5 -33t-58.5 -12.5t-77.5 -2q-33 0 -60 3.5t-46.5 15.5t-30 34.5t-10.5 61.5v103q0 17 3.5 36.5t23.5 46.5z" />
    <glyph glyph-name="Agrave" unicode="&#xc0;" horiz-adv-x="399" 
d="M226 833l33 -100h-97l-55 100h119zM199 517l-25 -287h48zM296 667l83 -667h-141l-8 141h-64l-16 -141h-130l80 667h196z" />
    <glyph glyph-name="Aacute" unicode="&#xc1;" horiz-adv-x="399" 
d="M173 833h120l-55 -100h-98zM199 517l-25 -287h48zM296 667l83 -667h-141l-8 141h-64l-16 -141h-130l80 667h196z" />
    <glyph glyph-name="Acircumflex" unicode="&#xc2;" horiz-adv-x="399" 
d="M274 842l59 -109h-106l-28 57l-30 -57h-108l62 109h151zM199 517l-25 -287h48zM296 667l83 -667h-141l-8 141h-64l-16 -141h-130l80 667h196z" />
    <glyph glyph-name="Atilde" unicode="&#xc3;" horiz-adv-x="399" 
d="M251 793q17 0 22 14h51q0 -21 -7 -35.5t-17 -23t-21 -12.5t-20 -4q-15 0 -27.5 3t-24 6.5t-22 6.5t-22.5 3q-21 0 -31 -18h-52q14 79 78 79q28 0 50.5 -9.5t42.5 -9.5zM199 517l-25 -287h48zM296 667l83 -667h-141l-8 141h-64l-16 -141h-130l80 667h196z" />
    <glyph glyph-name="Adieresis" unicode="&#xc4;" horiz-adv-x="399" 
d="M309 829v-96h-84v96h84zM178 829v-96h-84v96h84zM199 517l-25 -287h48zM296 667l83 -667h-141l-8 141h-64l-16 -141h-130l80 667h196z" />
    <glyph glyph-name="Aring" unicode="&#xc5;" horiz-adv-x="399" 
d="M197 864q-16 0 -28 -6t-20 -15t-12 -19t-4 -19q0 -28 17.5 -47t45.5 -19q24 0 43 17t19 50q0 7 -4 17t-11.5 19t-19 15.5t-26.5 6.5zM197 897q21 0 38.5 -8t30 -21.5t19 -30t6.5 -32.5q0 -17 -2.5 -32.5t-14.5 -30.5t-32.5 -25t-40.5 -10q-48 0 -74.5 27t-26.5 71
q0 17 6.5 33.5t19 29.5t30.5 21t41 8zM199 517l-25 -287h48zM296 667l83 -667h-141l-8 141h-64l-16 -141h-130l80 667h196z" />
    <glyph glyph-name="AE" unicode="&#xc6;" horiz-adv-x="485" 
d="M199 575l-29 -340h44v340h-15zM444 667v-92h-88v-167h88v-89h-88v-229h88v-89h-230v142h-52l-13 -142h-129l73 666h351z" />
    <glyph glyph-name="Ccedilla" unicode="&#xc7;" horiz-adv-x="413" 
d="M270 -38v-81q0 -38 -5 -58.5t-17 -30t-33 -11.5t-52 -2v50h9q12 0 19.5 7.5t7.5 19.5v17h-36v89h107zM230 439v94q0 20 -4.5 32.5t-20.5 12.5q-13 0 -18 -9.5t-5 -26.5v-415q0 -12 7 -20.5t19 -8.5q11 0 16.5 7.5t5.5 15.5v162h142v-186q0 -32 -12.5 -51t-34.5 -29.5
t-52.5 -13.5t-65.5 -3q-41 0 -72.5 3.5t-52.5 16t-31.5 37t-10.5 67.5v442q0 31 8 52t27.5 34t51.5 18.5t81 5.5q38 0 68.5 -4.5t51.5 -16.5t32.5 -33.5t11.5 -55.5v-127h-142z" />
    <glyph glyph-name="Egrave" unicode="&#xc8;" horiz-adv-x="312" 
d="M179 833l34 -100h-98l-55 100h119zM271 668v-96h-88v-165h88v-89h-88v-229h88v-89h-230v668h230z" />
    <glyph glyph-name="Eacute" unicode="&#xc9;" horiz-adv-x="312" 
d="M127 833h119l-55 -100h-98zM271 668v-96h-88v-165h88v-89h-88v-229h88v-89h-230v668h230z" />
    <glyph glyph-name="Ecircumflex" unicode="&#xca;" horiz-adv-x="352" 
d="M253 842l59 -109h-107l-28 57l-29 -57h-108l62 109h151zM291 668v-96h-88v-165h88v-89h-88v-229h88v-89h-230v668h230z" />
    <glyph glyph-name="Edieresis" unicode="&#xcb;" horiz-adv-x="312" 
d="M262 829v-96h-84v96h84zM131 829v-96h-84v96h84zM271 668v-96h-88v-165h88v-89h-88v-229h88v-89h-230v668h230z" />
    <glyph glyph-name="Igrave" unicode="&#xcc;" horiz-adv-x="222" 
d="M132 833l34 -100h-98l-55 100h119zM40 667h142v-667h-142v667z" />
    <glyph glyph-name="Iacute" unicode="&#xcd;" horiz-adv-x="222" 
d="M87 833h119l-55 -100h-98zM40 667h142v-667h-142v667z" />
    <glyph glyph-name="Icircumflex" unicode="&#xce;" horiz-adv-x="222" 
d="M186 842l59 -109h-107l-28 57l-29 -57h-108l62 109h151zM40 667h142v-667h-142v667z" />
    <glyph glyph-name="Idieresis" unicode="&#xcf;" horiz-adv-x="222" 
d="M218 829v-96h-84v96h84zM88 829v-96h-84v96h84zM40 667h142v-667h-142v667z" />
    <glyph glyph-name="Ntilde" unicode="&#xd1;" horiz-adv-x="435" 
d="M264 793q17 0 22 14h52q0 -21 -7.5 -35.5t-17.5 -23t-21 -12.5t-20 -4q-15 0 -27.5 3t-24 6.5t-22 6.5t-22.5 3q-21 0 -31 -18h-52q14 79 79 79q28 0 50.5 -9.5t41.5 -9.5zM395 0h-146l-81 346v-346h-127v667h148l79 -323v323h127v-667z" />
    <glyph glyph-name="Ograve" unicode="&#xd2;" 
d="M233 833l33 -100h-98l-55 100h120zM230 531q0 43 -25 43q-13 0 -18 -10.5t-5 -28.5v-390q0 -23 4 -36.5t23 -13.5q16 0 18.5 13t2.5 44v379zM40 553q0 40 10 63.5t30 35t51.5 14.5t74.5 3q44 0 75.5 -3t51.5 -16.5t29.5 -40.5t9.5 -75v-404q0 -44 -8 -69.5t-27 -39
t-51 -17.5t-80 -4q-45 0 -77 4.5t-51.5 18.5t-28.5 39.5t-9 67.5v423z" />
    <glyph glyph-name="Oacute" unicode="&#xd3;" 
d="M180 833h119l-55 -100h-97zM230 531q0 43 -25 43q-13 0 -18 -10.5t-5 -28.5v-390q0 -23 4 -36.5t23 -13.5q16 0 18.5 13t2.5 44v379zM40 553q0 40 10 63.5t30 35t51.5 14.5t74.5 3q44 0 75.5 -3t51.5 -16.5t29.5 -40.5t9.5 -75v-404q0 -44 -8 -69.5t-27 -39t-51 -17.5
t-80 -4q-45 0 -77 4.5t-51.5 18.5t-28.5 39.5t-9 67.5v423z" />
    <glyph glyph-name="Ocircumflex" unicode="&#xd4;" 
d="M283 842l59 -109h-107l-28 57l-29 -57h-108l62 109h151zM230 531q0 43 -25 43q-13 0 -18 -10.5t-5 -28.5v-390q0 -23 4 -36.5t23 -13.5q16 0 18.5 13t2.5 44v379zM40 553q0 40 10 63.5t30 35t51.5 14.5t74.5 3q44 0 75.5 -3t51.5 -16.5t29.5 -40.5t9.5 -75v-404
q0 -44 -8 -69.5t-27 -39t-51 -17.5t-80 -4q-45 0 -77 4.5t-51.5 18.5t-28.5 39.5t-9 67.5v423z" />
    <glyph glyph-name="Otilde" unicode="&#xd5;" 
d="M255 793q17 0 22 14h51q0 -21 -7 -35.5t-17 -23t-21 -12.5t-20 -4q-15 0 -27.5 3t-24 6.5t-22 6.5t-22.5 3q-21 0 -31 -18h-52q14 79 78 79q28 0 50.5 -9.5t42.5 -9.5zM230 531q0 43 -25 43q-13 0 -18 -10.5t-5 -28.5v-390q0 -23 4 -36.5t23 -13.5q16 0 18.5 13t2.5 44
v379zM40 553q0 40 10 63.5t30 35t51.5 14.5t74.5 3q44 0 75.5 -3t51.5 -16.5t29.5 -40.5t9.5 -75v-404q0 -44 -8 -69.5t-27 -39t-51 -17.5t-80 -4q-45 0 -77 4.5t-51.5 18.5t-28.5 39.5t-9 67.5v423z" />
    <glyph glyph-name="Odieresis" unicode="&#xd6;" 
d="M312 829v-96h-84v96h84zM182 829v-96h-85v96h85zM230 531q0 43 -25 43q-13 0 -18 -10.5t-5 -28.5v-390q0 -23 4 -36.5t23 -13.5q16 0 18.5 13t2.5 44v379zM40 553q0 40 10 63.5t30 35t51.5 14.5t74.5 3q44 0 75.5 -3t51.5 -16.5t29.5 -40.5t9.5 -75v-404q0 -44 -8 -69.5
t-27 -39t-51 -17.5t-80 -4q-45 0 -77 4.5t-51.5 18.5t-28.5 39.5t-9 67.5v423z" />
    <glyph glyph-name="Oslash" unicode="&#xd8;" horiz-adv-x="424" 
d="M235 335l-46 -101v-111q0 -25 25 -25q17 0 19 10t2 24v203zM189 337l46 105v98q0 17 -5 26.5t-19 9.5q-11 0 -16.5 -7t-5.5 -18v-214zM339 669h45l-20 -48q6 -15 9.5 -29t3.5 -30v-427q0 -42 -4 -68t-20.5 -41t-49.5 -20.5t-91 -5.5q-41 0 -70.5 3.5t-49.5 14.5l-7 -18
h-45l22 52q-11 17 -13 39t-2 54v417q0 35 11.5 56.5t32.5 33t51.5 15.5t69.5 4t69 -3t51 -14z" />
    <glyph glyph-name="Ugrave" unicode="&#xd9;" 
d="M233 833l33 -100h-98l-55 100h120zM372 667v-539q0 -42 -7 -68.5t-25.5 -41t-50 -19.5t-80.5 -5q-40 0 -71.5 2.5t-53 15t-33 38t-11.5 70.5v547h142v-526q0 -29 5.5 -40.5t22.5 -11.5q13 0 16.5 15t3.5 40v523h142z" />
    <glyph glyph-name="Uacute" unicode="&#xda;" 
d="M180 833h119l-55 -100h-97zM372 667v-539q0 -42 -7 -68.5t-25.5 -41t-50 -19.5t-80.5 -5q-40 0 -71.5 2.5t-53 15t-33 38t-11.5 70.5v547h142v-526q0 -29 5.5 -40.5t22.5 -11.5q13 0 16.5 15t3.5 40v523h142z" />
    <glyph glyph-name="Ucircumflex" unicode="&#xdb;" 
d="M280 842l58 -109h-106l-28 57l-30 -57h-107l62 109h151zM372 667v-539q0 -42 -7 -68.5t-25.5 -41t-50 -19.5t-80.5 -5q-40 0 -71.5 2.5t-53 15t-33 38t-11.5 70.5v547h142v-526q0 -29 5.5 -40.5t22.5 -11.5q13 0 16.5 15t3.5 40v523h142z" />
    <glyph glyph-name="Udieresis" unicode="&#xdc;" 
d="M312 829v-96h-83v96h83zM182 829v-96h-85v96h85zM371 667v-539q0 -42 -7 -68.5t-25 -41t-49.5 -19.5t-80.5 -5q-40 0 -71.5 2.5t-53 15t-33 38t-11.5 70.5v547h142v-526q0 -29 5.5 -40.5t22.5 -11.5q13 0 16 15t3 40v523h142z" />
    <glyph glyph-name="germandbls" unicode="&#xdf;" horiz-adv-x="409" 
d="M39 0v539q0 23 1.5 45.5t16.5 43.5q18 25 48.5 33.5t75.5 8.5q42 0 76.5 -1.5t59.5 -12t39 -33t14 -64.5v-114q0 -19 -2.5 -32.5t-8.5 -23.5t-16.5 -17.5t-26.5 -14.5q12 -7 21.5 -13.5t17 -16t11.5 -25t4 -40.5v-246q0 -35 -3.5 -59t-16 -38.5t-36.5 -21t-65 -6.5h-70
v90h16q17 0 25 5.5t8 22.5v272q0 17 -6 25.5t-21 10.5v83q15 2 21 11.5t6 29.5v101q0 14 -7.5 22t-16 8t-16 -9t-7.5 -29v-534h-142z" />
    <glyph glyph-name="agrave" unicode="&#xe0;" horiz-adv-x="370" 
d="M213 713l33 -100h-98l-55 100h120zM207 249l-24 -13q-8 -5 -13.5 -11t-5.5 -20v-97q0 -31 20 -31q17 0 20 12t3 28v132zM41 351v52q0 46 4 73.5t19 42.5t44 19.5t79 4.5q45 0 72.5 -4.5t43.5 -18.5t21.5 -39.5t5.5 -68.5v-412h-123v22q-18 -12 -35 -21.5t-34 -9.5
q-97 0 -97 97v82q0 19 0.5 34.5t5 29t16 25.5t33.5 24l111 59v88q0 16 -4.5 26t-15.5 10q-14 0 -18.5 -8.5t-4.5 -28.5v-78h-123z" />
    <glyph glyph-name="aacute" unicode="&#xe1;" horiz-adv-x="370" 
d="M160 713h119l-55 -100h-97zM207 249l-24 -13q-8 -5 -13.5 -11t-5.5 -20v-97q0 -31 20 -31q17 0 20 12t3 28v132zM41 351v52q0 46 4 73.5t19 42.5t44 19.5t79 4.5q45 0 72.5 -4.5t43.5 -18.5t21.5 -39.5t5.5 -68.5v-412h-123v22q-18 -12 -35 -21.5t-34 -9.5q-97 0 -97 97
v82q0 19 0.5 34.5t5 29t16 25.5t33.5 24l111 59v88q0 16 -4.5 26t-15.5 10q-14 0 -18.5 -8.5t-4.5 -28.5v-78h-123z" />
    <glyph glyph-name="acircumflex" unicode="&#xe2;" horiz-adv-x="370" 
d="M260 722l58 -109h-106l-28 57l-30 -57h-107l62 109h151zM207 249l-24 -13q-8 -5 -13.5 -11t-5.5 -20v-97q0 -31 20 -31q17 0 20 12t3 28v132zM41 351v52q0 46 4 73.5t19 42.5t44 19.5t79 4.5q45 0 72.5 -4.5t43.5 -18.5t21.5 -39.5t5.5 -68.5v-412h-123v22
q-18 -12 -35 -21.5t-34 -9.5q-97 0 -97 97v82q0 19 0.5 34.5t5 29t16 25.5t33.5 24l111 59v88q0 16 -4.5 26t-15.5 10q-14 0 -18.5 -8.5t-4.5 -28.5v-78h-123z" />
    <glyph glyph-name="atilde" unicode="&#xe3;" horiz-adv-x="370" 
d="M234 673q17 0 22 14h52q0 -21 -7.5 -35.5t-17.5 -23t-21 -12.5t-20 -4q-15 0 -27.5 3t-24 6.5t-22 6.5t-22.5 3q-21 0 -31 -18h-52q14 79 79 79q28 0 50.5 -9.5t41.5 -9.5zM207 249l-24 -13q-8 -5 -13.5 -11t-5.5 -20v-97q0 -31 20 -31q17 0 20 12t3 28v132zM41 351v52
q0 46 4 73.5t19 42.5t44 19.5t79 4.5q45 0 72.5 -4.5t43.5 -18.5t21.5 -39.5t5.5 -68.5v-412h-123v22q-18 -12 -35 -21.5t-34 -9.5q-97 0 -97 97v82q0 19 0.5 34.5t5 29t16 25.5t33.5 24l111 59v88q0 16 -4.5 26t-15.5 10q-14 0 -18.5 -8.5t-4.5 -28.5v-78h-123z" />
    <glyph glyph-name="adieresis" unicode="&#xe4;" horiz-adv-x="370" 
d="M292 709v-96h-85v96h85zM163 709v-96h-86v96h86zM207 249l-24 -13q-8 -5 -14 -11t-6 -20v-97q0 -31 21 -31q17 0 20 12t3 28v132zM40 351v52q0 46 4.5 73.5t19.5 42.5t44 19.5t79 4.5q45 0 72.5 -4.5t43.5 -18.5t21.5 -39.5t5.5 -68.5v-412h-123v22q-18 -12 -35 -21.5
t-34 -9.5q-98 0 -98 97v82q0 19 0.5 34.5t5.5 29t16.5 25.5t33.5 24l111 59v88q0 16 -4.5 26t-15.5 10q-14 0 -19 -8.5t-5 -28.5v-78h-123z" />
    <glyph glyph-name="aring" unicode="&#xe5;" horiz-adv-x="370" 
d="M183 744q-16 0 -28 -6t-19.5 -14.5t-11.5 -19t-4 -19.5q0 -29 17.5 -47.5t44.5 -18.5q24 0 43.5 17.5t19.5 49.5q0 7 -4 17t-12 19t-19.5 15.5t-26.5 6.5zM184 777q21 0 38.5 -8.5t30 -21.5t19 -29.5t6.5 -32.5q0 -17 -3 -32.5t-15 -30.5t-32.5 -25t-40.5 -10
q-48 0 -74 27t-26 71q0 17 6.5 33.5t19 29.5t30.5 21t41 8zM207 249l-24 -13q-8 -5 -13.5 -11t-5.5 -20v-97q0 -31 20 -31q17 0 20 12t3 28v132zM41 351v52q0 46 4 73.5t19 42.5t44 19.5t79 4.5q45 0 72.5 -4.5t43.5 -18.5t21.5 -39.5t5.5 -68.5v-412h-123v22
q-18 -12 -35 -21.5t-34 -9.5q-97 0 -97 97v82q0 19 0.5 34.5t5 29t16 25.5t33.5 24l111 59v88q0 16 -4.5 26t-15.5 10q-14 0 -18.5 -8.5t-4.5 -28.5v-78h-123z" />
    <glyph glyph-name="ae" unicode="&#xe6;" horiz-adv-x="536" 
d="M329 333h41v115q0 11 -4 18t-15 7t-16.5 -10t-5.5 -27v-103zM206 257l-28 -16q-14 -8 -14 -23v-97q0 -14 4 -25t18 -11q11 0 15.5 8.5t4.5 21.5v142zM41 203q0 33 11 52.5t44 36.5l110 58v100q0 7 -4.5 15.5t-14.5 8.5q-14 0 -18.5 -9.5t-4.5 -25.5v-77h-123v39
q0 40 2 69t15 48t42 27.5t83 8.5q31 0 52.5 -3t35.5 -6q14 3 33 5.5t44 2.5q52 0 81.5 -6.5t44.5 -21.5t19 -41t4 -65v-164h-168v-137q0 -20 4 -29.5t18 -9.5q11 0 15 10t4 27v87h127v-87q0 -36 -6.5 -58.5t-23.5 -35t-46 -17t-75 -4.5q-47 0 -73.5 5.5t-48.5 26.5
q-20 -14 -41 -24t-49 -10q-44 0 -68.5 27t-24.5 70v107z" />
    <glyph glyph-name="ccedilla" unicode="&#xe7;" horiz-adv-x="372" 
d="M332 323h-127v122q0 7 -4.5 16t-16.5 9q-10 0 -13.5 -9.5t-3.5 -23.5v-332q0 -15 4.5 -22t18.5 -7q9 0 12 7.5t3 18.5v136h127v-148q0 -56 -34.5 -74t-107.5 -18q-40 0 -68.5 3t-46.5 15t-26.5 36t-8.5 66v288q0 48 5.5 75.5t21.5 42t46 18.5t80 4q27 0 52.5 -2t44.5 -11
t30.5 -28t11.5 -53v-129zM248 -38v-81q0 -38 -5 -58.5t-17.5 -30t-33 -11.5t-51.5 -2v50h9q11 0 19 7t8 20v17h-36v89h107z" />
    <glyph glyph-name="egrave" unicode="&#xe8;" horiz-adv-x="371" 
d="M213 713l33 -100h-98l-55 100h120zM164 329h43v108q0 14 -4.5 22.5t-15.5 8.5q-14 0 -18.5 -10.5t-4.5 -30.5v-98zM164 251v-147q0 -28 22 -28q12 0 16.5 9t4.5 23v91h123v-70q0 -40 -4 -65.5t-18 -40t-40.5 -20t-71.5 -5.5t-75 4t-48 17t-25 38t-7 68v312q0 31 6 51.5
t21.5 33.5t41.5 18.5t65 5.5q49 0 79.5 -4t47 -17t22.5 -39t6 -69v-166h-166z" />
    <glyph glyph-name="eacute" unicode="&#xe9;" horiz-adv-x="371" 
d="M153 713h120l-55 -100h-98zM164 329h43v108q0 14 -4.5 22.5t-15.5 8.5q-14 0 -18.5 -10.5t-4.5 -30.5v-98zM164 251v-147q0 -28 22 -28q12 0 16.5 9t4.5 23v91h123v-70q0 -40 -4 -65.5t-18 -40t-40.5 -20t-71.5 -5.5t-75 4t-48 17t-25 38t-7 68v312q0 31 6 51.5
t21.5 33.5t41.5 18.5t65 5.5q49 0 79.5 -4t47 -17t22.5 -39t6 -69v-166h-166z" />
    <glyph glyph-name="ecircumflex" unicode="&#xea;" horiz-adv-x="371" 
d="M260 722l58 -109h-106l-28 57l-30 -57h-107l62 109h151zM164 329h43v108q0 14 -4.5 22.5t-15.5 8.5q-14 0 -18.5 -10.5t-4.5 -30.5v-98zM164 251v-147q0 -28 22 -28q12 0 16.5 9t4.5 23v91h123v-70q0 -40 -4 -65.5t-18 -40t-40.5 -20t-71.5 -5.5t-75 4t-48 17t-25 38
t-7 68v312q0 31 6 51.5t21.5 33.5t41.5 18.5t65 5.5q49 0 79.5 -4t47 -17t22.5 -39t6 -69v-166h-166z" />
    <glyph glyph-name="edieresis" unicode="&#xeb;" horiz-adv-x="371" 
d="M292 709v-96h-85v96h85zM161 709v-96h-84v96h84zM164 329h43v108q0 14 -4.5 22.5t-15.5 8.5q-14 0 -18.5 -10.5t-4.5 -30.5v-98zM164 251v-147q0 -28 22 -28q12 0 16.5 9t4.5 23v91h123v-70q0 -40 -4 -65.5t-18 -40t-40.5 -20t-71.5 -5.5t-75 4t-48 17t-25 38t-7 68v312
q0 31 6 51.5t21.5 33.5t41.5 18.5t65 5.5q49 0 79.5 -4t47 -17t22.5 -39t6 -69v-166h-166z" />
    <glyph glyph-name="igrave" unicode="&#xec;" horiz-adv-x="207" 
d="M127 713l34 -100h-98l-55 100h119zM167 535v-535h-127v535h127z" />
    <glyph glyph-name="iacute" unicode="&#xed;" horiz-adv-x="207" 
d="M80 713h119l-55 -100h-97zM167 537v-537h-127v537h127z" />
    <glyph glyph-name="icircumflex" unicode="&#xee;" horiz-adv-x="207" 
d="M180 722l59 -109h-107l-28 57l-29 -57h-108l62 109h151zM168 537v-537h-127v537h127z" />
    <glyph glyph-name="idieresis" unicode="&#xef;" horiz-adv-x="207" 
d="M212 709v-96h-84v96h84zM82 709v-96h-84v96h84zM168 537v-537h-127v537h127z" />
    <glyph glyph-name="ntilde" unicode="&#xf1;" horiz-adv-x="369" 
d="M229 673q18 0 23 14h51q0 -21 -7.5 -35t-17.5 -23t-21 -13t-20 -4q-15 0 -27.5 3t-24 6.5t-22 6.5t-22.5 3q-21 0 -31 -18h-51q14 79 78 79q28 0 50 -9.5t42 -9.5zM167 539v-22q15 11 31.5 19t38.5 8q19 0 35 -4.5t31 -18.5q20 -19 23 -40t3 -47v-434h-123v428v13
q0 8 -5 14t-17 6q-11 0 -14 -10t-3 -24v-427h-127v539h127z" />
    <glyph glyph-name="ograve" unicode="&#xf2;" horiz-adv-x="373" 
d="M213 713l33 -100h-98l-55 100h120zM207 432q0 20 -3.5 29.5t-16.5 9.5q-12 0 -16 -9t-4 -30v-319q0 -16 3.5 -26t16.5 -10q14 0 17 11t3 26v318zM334 136q0 -27 -2 -52t-13 -44t-35 -30t-67 -11q-59 0 -93.5 5t-53.5 19t-24.5 39.5t-5.5 66.5v292q0 40 6 65t22.5 39
t45.5 19t75 5q48 0 76.5 -5.5t43.5 -20t20 -40t5 -66.5v-281z" />
    <glyph glyph-name="oacute" unicode="&#xf3;" horiz-adv-x="373" 
d="M153 713h120l-55 -100h-98zM207 432q0 20 -3.5 29.5t-16.5 9.5q-12 0 -16 -9t-4 -30v-319q0 -16 3.5 -26t16.5 -10q14 0 17 11t3 26v318zM334 136q0 -27 -2 -52t-13 -44t-35 -30t-67 -11q-59 0 -93.5 5t-53.5 19t-24.5 39.5t-5.5 66.5v292q0 40 6 65t22.5 39t45.5 19
t75 5q48 0 76.5 -5.5t43.5 -20t20 -40t5 -66.5v-281z" />
    <glyph glyph-name="ocircumflex" unicode="&#xf4;" horiz-adv-x="373" 
d="M260 722l59 -109h-106l-28 57l-30 -57h-108l62 109h151zM207 432q0 20 -3.5 29.5t-16.5 9.5q-12 0 -16 -9t-4 -30v-319q0 -16 3.5 -26t16.5 -10q14 0 17 11t3 26v318zM334 136q0 -27 -2 -52t-13 -44t-35 -30t-67 -11q-59 0 -93.5 5t-53.5 19t-24.5 39.5t-5.5 66.5v292
q0 40 6 65t22.5 39t45.5 19t75 5q48 0 76.5 -5.5t43.5 -20t20 -40t5 -66.5v-281z" />
    <glyph glyph-name="otilde" unicode="&#xf5;" horiz-adv-x="373" 
d="M229 673q18 0 23 14h51q0 -21 -7.5 -35.5t-17.5 -23t-21 -12.5t-20 -4q-15 0 -27.5 3t-24 6.5t-22 6.5t-22.5 3q-21 0 -31 -18h-51q14 79 78 79q28 0 50.5 -9.5t41.5 -9.5zM207 432q0 20 -3.5 29.5t-16.5 9.5q-12 0 -16 -9t-4 -30v-319q0 -16 3.5 -26t16.5 -10
q14 0 17 11t3 26v318zM334 136q0 -27 -2 -52t-13 -44t-35 -30t-67 -11q-59 0 -93.5 5t-53.5 19t-24.5 39.5t-5.5 66.5v292q0 40 6 65t22.5 39t45.5 19t75 5q48 0 76.5 -5.5t43.5 -20t20 -40t5 -66.5v-281z" />
    <glyph glyph-name="odieresis" unicode="&#xf6;" horiz-adv-x="373" 
d="M292 709v-96h-85v96h85zM161 709v-96h-84v96h84zM207 432q0 20 -3.5 29.5t-16.5 9.5q-12 0 -16 -9t-4 -30v-319q0 -16 3.5 -26t16.5 -10q14 0 17 11t3 26v318zM334 136q0 -27 -2 -52t-13 -44t-35 -30t-67 -11q-59 0 -93.5 5t-53.5 19t-24.5 39.5t-5.5 66.5v292q0 40 6 65
t22.5 39t45.5 19t75 5q48 0 76.5 -5.5t43.5 -20t20 -40t5 -66.5v-281z" />
    <glyph glyph-name="oslash" unicode="&#xf8;" horiz-adv-x="377" 
d="M337 544l-17 -37q10 -18 11.5 -34t1.5 -39v-290q0 -45 -4 -73.5t-18 -45t-42 -23t-76 -6.5q-23 0 -48.5 1t-55.5 12l-5 -6h-44l15 36q-5 12 -7.5 21.5t-4 19.5t-1.5 21.5v27.5v264q0 43 2.5 73t15.5 48.5t41 26.5t79 8q34 0 62 -3.5t46 -9.5l4 8h45zM206 258l-37 -77v-70
q0 -16 3 -25.5t17 -9.5q8 0 12.5 7.5t4.5 18.5v156zM169 287l37 76v65q0 19 -3 31t-14 12q-16 0 -18 -14t-2 -28v-142z" />
    <glyph glyph-name="ugrave" unicode="&#xf9;" horiz-adv-x="373" 
d="M213 713l33 -100h-98l-55 100h120zM333 536v-536h-127v21q-14 -14 -33 -20.5t-38 -6.5q-45 0 -70 25.5t-25 78.5v438h127v-429q0 -14 4 -22.5t15 -8.5q10 0 15 6.5t5 14.5v439h127z" />
    <glyph glyph-name="uacute" unicode="&#xfa;" horiz-adv-x="373" 
d="M153 713h120l-55 -100h-98zM333 536v-536h-127v21q-14 -14 -33 -20.5t-38 -6.5q-45 0 -70 25.5t-25 78.5v438h127v-429q0 -14 4 -22.5t15 -8.5q10 0 15 6.5t5 14.5v439h127z" />
    <glyph glyph-name="ucircumflex" unicode="&#xfb;" horiz-adv-x="373" 
d="M260 722l59 -109h-106l-28 57l-30 -57h-108l62 109h151zM333 536v-536h-127v21q-14 -14 -33 -20.5t-38 -6.5q-45 0 -70 25.5t-25 78.5v438h127v-429q0 -14 4 -22.5t15 -8.5q10 0 15 6.5t5 14.5v439h127z" />
    <glyph glyph-name="udieresis" unicode="&#xfc;" horiz-adv-x="373" 
d="M292 709v-96h-86v96h86zM161 709v-96h-84v96h84zM333 536v-536h-127v21q-14 -14 -33 -20.5t-38 -6.5q-45 0 -70 25.5t-25 78.5v438h127v-429q0 -14 4 -22.5t15 -8.5q10 0 15 6.5t5 14.5v439h127z" />
    <glyph glyph-name="ydieresis" unicode="&#xff;" horiz-adv-x="373" 
d="M292 709v-96h-84v96h84zM161 709v-96h-84v96h84zM164 539l27 -339l30 339h132l-96 -518q-6 -33 -12 -60.5t-19.5 -48t-37.5 -31.5t-66 -11h-102v78h56q18 0 28.5 2.5t15 10t4 20t-3.5 32.5l-86 526h130z" />
    <glyph glyph-name="OE" unicode="&#x152;" horiz-adv-x="499" 
d="M229 540q0 14 -6 23t-19 9t-17.5 -8.5t-4.5 -24.5v-407q0 -17 6 -27.5t20 -10.5q11 0 16 10.5t5 27.5v408zM458 667v-89h-87v-169h87v-89h-87v-230h87v-89h-265q-41 0 -69.5 5t-47.5 19t-27.5 39t-8.5 64v406q0 42 7.5 68t25.5 40.5t46.5 19.5t70.5 5h268z" />
    <glyph glyph-name="oe" unicode="&#x153;" horiz-adv-x="536" 
d="M331 333h42v109q0 11 -5.5 20.5t-16.5 9.5q-14 0 -17 -11.5t-3 -28.5v-99zM204 440q0 14 -3.5 23t-14.5 9t-15 -10t-4 -27v-326q0 -15 3.5 -24.5t16.5 -9.5q12 0 14.5 11t2.5 26v328zM40 435q0 33 5 55t19.5 35.5t39.5 19.5t66 6q25 0 50 -1.5t51 -7.5q37 9 57 8.5
t31 -0.5q39 0 65.5 -3t42 -15t22.5 -35t7 -62v-183h-165v-141q0 -15 5 -24.5t16 -9.5t16 10.5t5 26.5v87h123v-91q0 -33 -5.5 -54t-20.5 -34t-41 -18t-66 -5q-27 0 -51 1.5t-43 7.5q-15 -5 -34.5 -6.5t-39.5 -1.5q-43 0 -72.5 2.5t-48 14t-26.5 35t-8 65.5v318z" />
    <glyph glyph-name="Ydieresis" unicode="&#x178;" horiz-adv-x="385" 
d="M302 829v-96h-84v96h84zM171 829v-96h-84v96h84zM365 667l-94 -399v-268h-142v267l-109 400h139l38 -264l40 264h128z" />
    <glyph glyph-name="florin" unicode="&#x192;" horiz-adv-x="475" 
d="M52 -44h52q11 0 19.5 2t10.5 13q1 4 2 11t2 12l75 470h-25l12 78h26q5 28 10.5 51.5t18 40t35 25.5t61.5 9h84l-12 -78h-25q-20 0 -30 -7t-13 -26l-2 -15h62l-13 -78h-61l-77 -481q-17 -105 -116 -105h-108z" />
    <glyph glyph-name="circumflex" unicode="&#x2c6;" horiz-adv-x="352" 
d="M253 722l59 -109h-107l-28 57l-29 -57h-108l62 109h151z" />
    <glyph glyph-name="dotaccent" unicode="&#x2d9;" horiz-adv-x="207" 
d="M167 668v-109h-127v109h127z" />
    <glyph glyph-name="ring" unicode="&#x2da;" horiz-adv-x="271" 
d="M137 744q-16 0 -28 -6t-20 -15t-12 -19t-4 -19q0 -28 17.5 -47t45.5 -19q24 0 43 17t19 50q0 7 -4 17t-11.5 19t-19 15.5t-26.5 6.5zM137 777q21 0 38.5 -8t30 -21.5t19 -30t6.5 -32.5q0 -17 -2.5 -32.5t-14.5 -30.5t-32.5 -25t-40.5 -10q-48 0 -74.5 27t-26.5 71
q0 17 6.5 33.5t19 29.5t30.5 21t41 8z" />
    <glyph glyph-name="tilde" unicode="&#x2dc;" horiz-adv-x="324" 
d="M211 673q17 0 22 14h51q0 -21 -7 -35.5t-17 -23t-21 -12.5t-20 -4q-15 0 -27.5 3t-24 6.5t-22 6.5t-22.5 3q-21 0 -31 -18h-52q14 79 78 79q28 0 50.5 -9.5t42.5 -9.5z" />
    <glyph glyph-name="emdash" unicode="&#x2014;" horiz-adv-x="558" 
d="M40 312h478v-92h-478v92z" />
    <glyph glyph-name="quoteleft" unicode="&#x2018;" horiz-adv-x="187" 
d="M40 504v110q0 55 23.5 78.5t83.5 25.5v-51q-37 -3 -37 -38v-11h37v-114h-107z" />
    <glyph glyph-name="quoteright" unicode="&#x2019;" horiz-adv-x="187" 
d="M147 667v-110q0 -54 -23.5 -78t-83.5 -26v51q37 3 37 38v11h-37v114h107z" />
    <glyph glyph-name="quotedblleft" unicode="&#x201c;" horiz-adv-x="330" 
d="M183 504v110q0 55 23.5 78.5t83.5 25.5v-51q-37 -3 -37 -38q0 -3 0.5 -5.5t0.5 -5.5h36v-114h-107zM40 504v110q0 55 23.5 78.5t83.5 25.5v-51q-37 -3 -37 -38v-11h37v-114h-107z" />
    <glyph glyph-name="quotedblright" unicode="&#x201d;" horiz-adv-x="324" 
d="M284 667v-110q0 -54 -23.5 -78t-83.5 -26v51q37 3 37 38q0 3 -0.5 5.5t-0.5 5.5h-36v114h107zM147 667v-110q0 -54 -23.5 -78t-83.5 -26v51q37 3 37 38v11h-37v114h107z" />
    <glyph glyph-name="quotedblbase" unicode="&#x201e;" horiz-adv-x="324" 
d="M284 114v-110q0 -55 -23.5 -78.5t-83.5 -25.5v51q37 3 37 38q0 3 -0.5 5.5t-0.5 5.5h-36v114h107zM147 114v-110q0 -55 -23.5 -78.5t-83.5 -25.5v51q37 3 37 38v11h-37v114h107z" />
    <glyph glyph-name="bullet" unicode="&#x2022;" horiz-adv-x="500" 
d="M117 288q0 44 20 74t49.5 45t64 14.5t64 -15t49.5 -44.5t20 -74q0 -28 -10.5 -52.5t-28.5 -42.5t-42.5 -28.5t-52.5 -10.5t-52 10.5t-42 28.5t-28.5 42.5t-10.5 52.5z" />
    <glyph glyph-name="ellipsis" unicode="&#x2026;" horiz-adv-x="534" 
d="M494 114v-114h-107v114h107zM321 114v-114h-107v114h107zM147 114v-114h-107v114h107z" />
    <glyph glyph-name="perthousand" unicode="&#x2030;" horiz-adv-x="756" 
d="M632 227q0 11 -4 17.5t-12 6.5t-11.5 -7.5t-3.5 -15.5v-155q0 -19 17 -19q7 0 10.5 6t3.5 13v154zM514 222q0 29 7 45.5t20 24.5t31 10t41 2q28 0 48 -3t32 -11.5t17.5 -24t5.5 -40.5v-152q0 -27 -6 -42t-17.5 -22.5t-29 -9.5t-41.5 -2q-31 0 -52 2.5t-33.5 10.5
t-17.5 24.5t-5 43.5v144zM387 227q0 11 -4 17.5t-12 6.5t-12 -7.5t-4 -15.5v-155q0 -19 18 -19q7 0 10.5 6t3.5 13v154zM271 222q0 29 6.5 45.5t19.5 24.5t30.5 10t40.5 2q28 0 48 -3t32 -11.5t17.5 -24t5.5 -40.5v-152q0 -27 -6 -42t-18 -22.5t-29.5 -9.5t-40.5 -2
q-31 0 -51.5 2.5t-32.5 10.5t-17 24.5t-5 43.5v144zM158 588q0 23 -16 23q-8 0 -11.5 -7t-3.5 -15v-156q0 -18 17 -18q7 0 10.5 6t3.5 13v154zM40 582q0 29 7 45.5t20 25t31 10.5t41 2q29 0 48.5 -3t31.5 -11.5t17.5 -24t5.5 -40.5v-152q0 -27 -6 -42t-18 -22.5t-30 -9.5
t-41 -2q-31 0 -51.5 2t-33 10.5t-17.5 24.5t-5 43v144zM438 660l-320 -663h-48l321 663h47z" />
    <glyph glyph-name="guilsinglleft" unicode="&#x2039;" horiz-adv-x="233" 
d="M189 477l-49 -210l53 -212h-100l-53 212l50 210h99z" />
    <glyph glyph-name="guilsinglright" unicode="&#x203a;" horiz-adv-x="235" 
d="M44 477h102l49 -210l-52 -212h-103l55 212z" />
    <glyph glyph-name="trademark" unicode="&#x2122;" horiz-adv-x="596" 
d="M247 233v434h130l25 -212l27 212h127v-434h-84v242l-41 -242h-62l-38 242v-242h-84zM40 609v58h188v-58h-47v-376h-94v376h-47z" />
    <glyph glyph-name="minus" unicode="&#x2212;" horiz-adv-x="435" 
d="M40 312h355v-92h-355v92z" />
    <glyph glyph-name="doslessi" horiz-adv-x="207" 
d="M167 537v-537h-127v537h127z" />
    </font>
</defs>
</svg>
